<?xml version="1.0" standalone="no"?>
<!DOCTYPE svg PUBLIC "-//W3C//DTD SVG 1.1//EN" "http://www.w3.org/Graphics/SVG/1.1/DTD/svg11.dtd" >
<svg xmlns="http://www.w3.org/2000/svg">
<metadata>
This is a custom SVG webfont generated by Font Squirrel.
Copyright   : Copyright  1987 1990 1991 1995 1998 2001 Adobe Systems Incorporated  All Rights Reserved
Designer    : Roger Roberson
Foundry URL : httpwwwadobecomtype
</metadata>
<defs>
<font id="LetterGothicStdMedium" horiz-adv-x="1228" >
<font-face units-per-em="2048" ascent="1520" descent="-528" />
<missing-glyph horiz-adv-x="500" />
<glyph unicode=" " />
<glyph unicode="!" d="M471 108.5q0 57.5 40 98.5t97.5 41t98.5 -41t41 -98.5t-41 -97.5t-98.5 -40t-97.5 40t-40 97.5zM543 1475h143l-27 -1010h-81z" />
<glyph unicode="&#x22;" d="M356 1247v228h193v-228l-55 -276h-82zM682 1247v228h192v-228l-55 -276h-82z" />
<glyph unicode="#" d="M63 489l17 91h274l58 321h-275l17 90h274l119 658h90l-332 -1846h-92l125 686h-275zM582 -197l338 1846h90l-119 -658h276l-18 -90h-275l-57 -321h275l-17 -91h-274l-127 -686h-92z" />
<glyph unicode="$" d="M238 276l59 72q135 -125 262 -135v532q-123 39 -204 123t-81 205q0 119 84 201t201 96v150h96v-150q158 -14 295 -129l-57 -76q-119 113 -238 123v-473q145 -51 226.5 -136t81.5 -228q0 -139 -84 -223.5t-224 -96.5v-194h-96v194q-176 2 -321 145zM371 1067 q0 -78 56 -139.5t132 -89.5v446q-80 -12 -134 -72.5t-54 -144.5zM655 213q90 4 150.5 72.5t60.5 160.5q0 193 -211 279v-512z" />
<glyph unicode="%" d="M176 1133q0 143 78 256.5t215 113.5q199 0 199 -213q0 -166 -89.5 -270.5t-205.5 -104.5q-197 1 -197 218zM195 0l753 1503h86l-753 -1503h-86zM266 1116q0 -139 111 -139q68 0 116 60.5t66.5 132t18.5 137.5q0 57 -26 96t-81 39q-100 0 -152.5 -106.5t-52.5 -219.5z M561 195q0 143 78 256.5t215 113.5q199 0 199 -213q0 -166 -89.5 -270.5t-205.5 -104.5q-197 1 -197 218zM651 178q0 -139 111 -139q68 0 116 60.5t66.5 132t18.5 137.5q0 57 -26 96t-81 39q-100 0 -152.5 -106.5t-52.5 -219.5z" />
<glyph unicode="&#x26;" d="M176 289q0 72 16.5 135t60.5 135t67.5 103.5t93.5 117.5l22 29q-47 78 -70.5 121t-48 115.5t-24.5 136.5q0 133 65.5 227t194.5 94q98 0 163.5 -80t65.5 -188q0 -27 -4 -52.5t-8 -46t-16.5 -48t-17.5 -42t-24 -44.5l-26 -38q-6 -9 -32 -42l-29 -38q-4 -5 -35 -41t-33 -40 l289 -471q35 117 35 395h102q-10 -322 -76 -481l176 -209l-67 -70l-160 191q-133 -186 -346 -187q-147 0 -240.5 86.5t-93.5 231.5zM279 295q0 -109 60 -175.5t169 -66.5q199 0 299 176l-320 488q-74 -94 -103.5 -135t-67 -125t-37.5 -162zM395 1204q0 -90 25.5 -159.5 t83.5 -165.5l47 71l39 60l30 44q17 26 23 38t15.5 27.5t11.5 25.5t5 20.5t4 23.5t1 23v31q0 66 -37 122t-102 56q-74 0 -110 -67.5t-36 -149.5z" />
<glyph unicode="'" d="M518 1247v228h193v-228l-56 -276h-82z" />
<glyph unicode="(" d="M385 688q0 250 95 476.5t284 355.5l45 -62q-328 -248 -328 -770t328 -770l-45 -59q-188 129 -283.5 355t-95.5 474z" />
<glyph unicode=")" d="M420 -82q328 248 328 770q0 238 -79 440.5t-249 329.5l45 62q188 -129 283.5 -355.5t95.5 -476.5q0 -248 -95.5 -474t-283.5 -355z" />
<glyph unicode="*" d="M158 1100l24 86l387 -115v404h88v-404l387 115l27 -86l-399 -115l254 -321l-68 -54l-244 310l-237 -310l-70 54l248 321z" />
<glyph unicode="+" d="M70 692v90h499v500h90v-500h500v-90h-500v-499h-90v499h-499z" />
<glyph unicode="," d="M498 100.5q0 57.5 40 95t95 37.5q63 0 103 -50t40 -117q0 -102 -83 -182.5t-191 -110.5v86q125 37 160 121q-8 0 -21 -5q-2 0 -8 -1t-10 -1q-57 0 -91 35t-34 92.5z" />
<glyph unicode="-" d="M373 694v82h483v-82h-483z" />
<glyph unicode="." d="M477 108.5q0 57.5 40 98.5t97.5 41t98.5 -41t41 -98.5t-41 -97.5t-98.5 -40t-97.5 40t-40 97.5z" />
<glyph unicode="/" d="M264 -55l606 1585h95l-607 -1585h-94z" />
<glyph unicode="0" d="M209 737q0 324 49 473q43 133 133 213t223 80q127 0 217.5 -75.5t133.5 -200.5q55 -160 55 -490q0 -326 -49 -473q-43 -133 -134.5 -213t-222.5 -80q-127 0 -217 76t-133 201q-55 157 -55 489zM305 737q0 -291 39 -424q31 -111 98.5 -186.5t171.5 -75.5q111 0 179.5 82 t99.5 205q31 133 31 399q0 291 -39 422q-31 113 -98.5 188.5t-172.5 75.5q-111 0 -179 -81.5t-99 -204.5q-31 -136 -31 -400z" />
<glyph unicode="1" d="M276 1305v90l392 125v-1438h272v-82h-649v82h280v1315z" />
<glyph unicode="2" d="M225 0q0 244 66.5 378t294.5 333q6 6 39.5 34.5t44 39t42 39t44 43t39 43t38.5 46.5l28 48q17 29 25.5 52t14.5 52t6 57q0 117 -68.5 186.5t-185.5 69.5q-133 0 -209.5 -89t-87.5 -226h-96q14 178 116.5 287.5t278.5 109.5q160 0 254.5 -92t94.5 -252q0 -94 -52.5 -187 t-97.5 -139.5t-147 -136.5l-27 -24q-223 -199 -288.5 -312.5t-69.5 -277.5h688v-82h-785z" />
<glyph unicode="3" d="M172 231l86 52q106 -223 330 -224q154 0 249 88.5t95 241.5q0 182 -111.5 274.5t-285.5 92.5v82q137 0 233 88t96 223q0 113 -83 192.5t-199 79.5q-98 0 -178 -56t-130 -146l-81 45q61 113 165.5 176t231.5 63q156 0 263.5 -108.5t107.5 -259.5q0 -111 -65 -197 t-171 -133q141 -45 222 -149.5t81 -247.5q0 -188 -123 -309.5t-313 -121.5q-141 0 -239.5 63.5t-180.5 190.5z" />
<glyph unicode="4" d="M143 395v72l545 1036h152v-1026h209v-82h-209v-395h-97v395h-600zM248 477h495v959h-4z" />
<glyph unicode="5" d="M236 199l71 55q49 -86 130 -140.5t175 -54.5q133 0 218 112t85 269q0 104 -28.5 183t-74.5 121t-93 61.5t-92 19.5q-164 0 -269 -168l-114 23l59 795h617v-82h-533l-49 -639q113 154 287 153q162 0 274.5 -121.5t112.5 -336.5q0 -195 -110.5 -333.5t-301.5 -138.5 q-212 1 -364 222z" />
<glyph unicode="6" d="M215 623q0 424 160 652t381 228q127 0 243 -76l-47 -81q-104 76 -200 75q-113 0 -204 -76.5t-141.5 -192.5t-76 -236.5t-19.5 -221.5q133 227 351 228q172 0 267 -135.5t95 -315.5q0 -207 -107.5 -350.5t-308.5 -143.5q-78 0 -144.5 32t-124.5 102.5t-91 201t-33 310.5z M324 432q0 -145 73.5 -259t212.5 -114q160 0 239 122t79 290q0 152 -71 260.5t-214 108.5q-115 0 -217 -111t-102 -297z" />
<glyph unicode="7" d="M211 1393v82h774l-567 -1475h-107l551 1393h-651z" />
<glyph unicode="8" d="M164 389q0 289 258 381q-96 41 -153.5 138.5t-57.5 207.5q0 176 112.5 281.5t290.5 105.5q180 0 289 -104.5t109 -282.5q0 -111 -54.5 -208t-150.5 -138q258 -90 258 -381q0 -193 -117 -302.5t-334 -109.5q-221 0 -335.5 111t-114.5 301zM260 389q0 -156 97.5 -243 t257 -87t257 87t97.5 243t-98.5 247t-256 91t-256 -91t-98.5 -247zM307 1102q0 -133 85 -213t220 -80q139 0 221 83t82 224t-81.5 223t-221.5 82q-145 0 -225 -84.5t-80 -234.5z" />
<glyph unicode="9" d="M203 1001q0 207 108.5 354.5t309.5 147.5q215 0 321 -227q72 -156 72 -424q0 -317 -101 -543q-66 -145 -179 -238.5t-261 -93.5q-135 0 -246 70l47 82q98 -70 203 -70q111 0 202 76t142 189.5t77 234.5t20 221q-137 -227 -351 -227q-172 0 -268 135t-96 313zM299 1004 q0 -152 71.5 -260.5t215.5 -108.5q129 0 233 131q86 115 86 276q0 147 -74.5 263t-214.5 116q-160 0 -238.5 -123.5t-78.5 -293.5z" />
<glyph unicode=":" d="M475 108.5q0 57.5 40 98.5t97.5 41t98.5 -41t41 -98.5t-41 -97.5t-98.5 -40t-97.5 40t-40 97.5zM475 827.5q0 57.5 40 98.5t97.5 41t98.5 -41t41 -98.5t-41 -97.5t-98.5 -40t-97.5 40t-40 97.5z" />
<glyph unicode=";" d="M498 100.5q0 57.5 40 95t95 37.5q63 0 103 -50t40 -117q0 -102 -83 -182.5t-191 -110.5v86q125 37 160 121q-8 0 -21 -5q-2 0 -8 -1t-10 -1q-57 0 -91 35t-34 92.5zM498 827.5q0 57.5 40 98.5t97 41t98 -41t41 -98.5t-41 -97.5t-98 -40t-97 40t-40 97.5z" />
<glyph unicode="&#x3c;" d="M201 737l776 738l51 -66l-696 -672l696 -671l-51 -66z" />
<glyph unicode="=" d="M70 555v90h1089v-90h-1089zM70 829v91h1089v-91h-1089z" />
<glyph unicode="&#x3e;" d="M201 66l696 671l-696 672l51 66l776 -738l-776 -737z" />
<glyph unicode="?" d="M258 1190q12 147 104.5 230t239.5 83q162 0 254 -95t92 -257q0 -111 -40 -173.5t-138 -139.5q-88 -70 -103.5 -106t-15.5 -148v-125h-96v200q0 74 16 109q23 53 156 156q66 53 95.5 104t29.5 129q0 119 -67.5 191.5t-184.5 72.5q-106 0 -170.5 -63.5t-69.5 -167.5h-102z M481 108.5q0 57.5 40 98.5t97.5 41t98.5 -41t41 -98.5t-41 -97.5t-98.5 -40t-97.5 40t-40 97.5z" />
<glyph unicode="@" d="M10 610q0 229 78 432t228.5 332t340.5 129q231 0 397.5 -170t166.5 -448q0 -76 -17.5 -158t-52.5 -161t-99.5 -129t-146.5 -50q-63 0 -113.5 32t-66.5 89q-88 -127 -215 -127q-78 0 -125 52t-47 134q0 90 32.5 191.5t86.5 167.5q96 119 348 118h65l-53 -319 q-10 -86 -11 -136t18.5 -77t38 -35t44.5 -8q59 0 103.5 43t68 108.5t34.5 129t11 118.5q0 141 -45 253t-115.5 174.5t-146.5 94t-149 31.5q-141 0 -253 -77.5t-176.5 -200.5t-98.5 -259t-34 -270q0 -150 43.5 -263t115 -175.5t150.5 -92.5t165 -30q209 0 475 172l35 -92 q-254 -162 -521 -162q-102 0 -197.5 37t-178 111t-133 200.5t-50.5 290.5zM434 580q0 -45 22.5 -81t63.5 -36q70 0 131.5 81t91.5 281l21 138q-127 -8 -197 -64q-53 -41 -93 -143t-40 -176z" />
<glyph unicode="A" d="M125 0l491 1534l494 -1534h-109l-133 449h-501l-136 -449h-106zM387 530h461l-232 742z" />
<glyph unicode="B" d="M244 0v1475h360q164 0 264.5 -97.5t100.5 -263.5q0 -229 -236 -334q143 -41 222 -142t79 -249q0 -164 -99 -276.5t-269 -112.5h-422zM340 82h309q106 0 197.5 78t91.5 225q0 141 -93 241.5t-251 100.5h-254v-645zM340 809h149q184 0 283.5 84t99.5 227q0 129 -70.5 201 t-242.5 72h-219v-584z" />
<glyph unicode="C" d="M197 717q0 786 471 786q135 0 231 -86t109 -221h-97q-4 96 -74.5 160.5t-168.5 64.5q-369 0 -369 -694q0 -674 356 -674q115 0 194 76t83 190h96q-16 -164 -116.5 -256t-264.5 -92q-137 0 -232.5 72t-139.5 192.5t-61 235.5t-17 246z" />
<glyph unicode="D" d="M252 0v1475h369q123 0 213 -58.5t139 -150.5q90 -166 90 -529q0 -399 -119 -573q-115 -164 -352 -164h-340zM348 82h182q68 0 117 6t99.5 25.5t88 58.5t64.5 98q61 141 62 467q0 346 -68 482q-53 106 -139 140t-224 34h-182v-1311z" />
<glyph unicode="E" d="M309 0v1475h721v-82h-624v-594h448v-82h-448v-635h638v-82h-735z" />
<glyph unicode="F" d="M328 0v1475h755v-82h-659v-582h496v-82h-496v-729h-96z" />
<glyph unicode="G" d="M205 690q0 238 32.5 401.5t95 251t138.5 124t176 36.5q164 0 253 -99t104 -267h-103v13q0 108 -62 187q-67 84 -182 84q-82 0 -144 -32.5t-99 -95t-59.5 -126t-33 -154.5t-12.5 -148.5t-2 -139.5q0 -76 2 -130t11.5 -142t31 -150.5t56 -124t93 -93.5t134.5 -32 q137 0 237.5 107.5t100.5 349.5v119h-355v82h451v-740h-96v234h-4q-33 -106 -129.5 -170t-212.5 -64q-92 0 -165 34t-133.5 113t-92 223t-31.5 349z" />
<glyph unicode="H" d="M225 0v1475h97v-668h583v668h96v-1475h-96v725h-583v-725h-97z" />
<glyph unicode="I" d="M360 0v82h205v1311h-205v82h506v-82h-204v-1311h204v-82h-506z" />
<glyph unicode="J" d="M174 444v158h96v-211q0 -176 66 -258q64 -80 198 -80h7q152 2 227.5 91t75.5 247v1002h-279v82h375v-1008q0 -264 -96 -380t-301 -116q-184 0 -276.5 110.5t-92.5 362.5z" />
<glyph unicode="K" d="M287 0v1475h96v-676q154 2 350 286q131 193 209 396l100 -54l-176 -297q-166 -274 -348 -380l631 -750h-133l-584 717h-49v-717h-96z" />
<glyph unicode="L" d="M346 0v1475h96v-1393h648v-82h-744z" />
<glyph unicode="M" d="M172 0v1475h107l335 -811l336 811h107v-1475h-96v1280h-5l-342 -819l-342 819l-4 -4v-1276h-96z" />
<glyph unicode="N" d="M256 0v1475h139l502 -1264l4 4v1260h96v-1489h-100l-541 1355l-4 -4v-1337h-96z" />
<glyph unicode="O" d="M180 737q0 119 7.5 211t34 202t71.5 182.5t128 121.5t197 49q90 0 161 -31.5t115 -74.5t75.5 -118t47 -133.5t24 -149.5t9.5 -136t1 -123q0 -227 -33 -382.5t-96.5 -236.5t-135 -114t-168.5 -33q-76 0 -136 18.5t-118.5 70t-97.5 135.5t-62.5 221t-23.5 321zM283 737 q0 -199 25.5 -338t73.5 -211.5t105.5 -103.5t130.5 -31q160 0 245 153.5t85 530.5q0 199 -24.5 337t-70.5 212t-102.5 104.5t-132.5 30.5q-168 0 -251.5 -158.5t-83.5 -525.5z" />
<glyph unicode="P" d="M297 0v1475h332q213 0 309 -126t96 -315q0 -213 -120.5 -323.5t-333.5 -110.5h-187v-600h-96zM393 682h172q186 0 276.5 93t90.5 257q0 193 -85 277t-212 84h-242v-711z" />
<glyph unicode="Q" d="M174 737q0 406 113.5 586t324.5 180q205 0 322 -174t117 -592q0 -133 -7.5 -229t-46.5 -221t-108 -199l166 -215h-121l-113 160q-92 -61 -209 -62q-209 0 -323.5 178t-114.5 588zM276 737q0 -66 1.5 -106.5t7.5 -120.5t18 -133t37 -120t59.5 -106.5t89 -68.5t123.5 -29 q336 0 336 662v11.5v10.5q0 199 -25.5 337t-73.5 212t-104.5 104.5t-132.5 30.5q-70 0 -124 -27.5t-88.5 -65.5t-59.5 -104.5t-37 -117.5t-18 -132t-7.5 -123t-1.5 -114z" />
<glyph unicode="R" d="M295 0v1475h350q182 0 286.5 -112t104.5 -294q0 -143 -75.5 -255t-208.5 -155l397 -659h-121l-366 637h-271v-637h-96zM391 719h240q115 0 209 91t94 267q0 139 -70.5 227.5t-218.5 88.5h-254v-674z" />
<glyph unicode="S" d="M203 188l73 60q135 -195 342 -195q131 0 223.5 86t92.5 217q0 113 -47 176.5t-242 178.5l-137 82q-127 76 -196.5 157.5t-69.5 202.5q0 162 108.5 256t272.5 94q195 0 374 -166l-57 -71q-180 156 -324 155q-115 0 -193.5 -71.5t-78.5 -186.5q0 -88 49 -153.5t182 -147.5 l121 -74q193 -117 266.5 -197.5t73.5 -209.5q0 -188 -113.5 -299t-304.5 -111q-247 0 -415 217z" />
<glyph unicode="T" d="M141 1393v82h946v-82h-425v-1393h-97v1393h-424z" />
<glyph unicode="U" d="M225 356v1119h97v-1047q0 -197 80.5 -286t211.5 -89q133 0 211 85t78 257v1080h96v-1096q0 -199 -119.5 -303.5t-265.5 -104.5q-156 0 -272.5 112.5t-116.5 272.5z" />
<glyph unicode="V" d="M203 1475h112l297 -1407h4l287 1407h111l-322 -1489h-155z" />
<glyph unicode="W" d="M150 1475h112l86 -1317h4l254 819l256 -819h4l86 1317h113l-115 -1489h-129l-215 741l-213 -741h-129z" />
<glyph unicode="X" d="M213 0l356 745l-346 730h115l276 -637l277 637h115l-342 -732l352 -743h-115l-289 653l-284 -653h-115z" />
<glyph unicode="Y" d="M158 1475h108l309 -738l312 738h108l-370 -850v-625h-97v625z" />
<glyph unicode="Z" d="M231 0v82l641 1311h-618v82h727v-82l-635 -1311h684v-82h-799z" />
<glyph unicode="[" d="M369 -180v1700h549v-82h-453v-1536h453v-82h-549z" />
<glyph unicode="\" d="M264 1530h94l607 -1585h-95z" />
<glyph unicode="]" d="M315 -98h453v1536h-453v82h549v-1700h-549v82z" />
<glyph unicode="^" d="M227 731l336 662h107l331 -662h-102l-281 563l-286 -563h-105z" />
<glyph unicode="_" d="M0 -154h1229v-102h-1229v102z" />
<glyph unicode="`" d="M369 1417l75 86l326 -266l-45 -61z" />
<glyph unicode="a" d="M227 322q0 162 87 273.5t239 111.5q117 0 264 -72v33q0 185 -43 267q-47 89 -178 89q-102 0 -260 -72l-23 88q168 66 289 66q150 0 233 -100q79 -96 79 -264q0 -8 -1 -17l-12 -442q-2 -119 53 -293l-88 -13q-31 92 -41 185q-63 -92 -130.5 -138.5t-166.5 -46.5 q-141 0 -221 100t-80 245zM324 313q0 -100 54 -177t150 -77q92 0 158 58.5t125 161.5v280q-127 66 -236 66q-127 0 -189 -90.5t-62 -221.5z" />
<glyph unicode="b" d="M209 -10q49 160 49 391v1139h96v-506q115 92 267 92q63 0 130.5 -27.5t137 -87t114 -174.5t44.5 -268q0 -150 -40 -265.5t-103.5 -179t-134.5 -95.5t-142 -32q-199 0 -289 179l-39 -179zM354 276q98 -217 271 -217q51 0 103 23.5t104.5 75t85 152t32.5 233.5 q0 139 -36.5 240.5t-95 150.5t-114 69.5t-108.5 20.5q-121 0 -242 -106v-642z" />
<glyph unicode="c" d="M225 530q0 158 40 275t107.5 179.5t141.5 92t156 29.5q227 0 372 -219l-86 -58q-98 195 -286 195q-45 0 -88 -11.5t-92.5 -44t-85 -83.5t-59 -138.5t-23.5 -199.5q0 -254 106.5 -371t247.5 -117q154 0 295 170l65 -69q-168 -182 -358 -183q-78 0 -151.5 27t-144.5 86.5 t-114 172.5t-43 267z" />
<glyph unicode="d" d="M178 549q0 154 44 268.5t114 174t137.5 87t130.5 27.5q152 0 266 -92v506h97v-1139q0 -231 49 -391l-90 -13l-39 179q-90 -178 -289 -179q-74 0 -143.5 31t-134 95.5t-103.5 179t-39 266.5zM274 543q0 -133 33 -232.5t85 -150.5t104.5 -76t103.5 -25q186 0 270 217v642 q-121 106 -241 106q-53 0 -108.5 -20.5t-114 -69.5t-95.5 -150.5t-37 -240.5z" />
<glyph unicode="e" d="M199 536.5q0 147.5 41 270.5t144 211t255 88q74 0 140.5 -28.5t126 -91t95 -181.5t35.5 -279h-741q23 -467 342 -467q164 0 342 107l41 -90q-221 -98 -387 -99q-150 0 -252 85t-142 206t-40 268.5zM295 608h645q1 13 1 27q0 138 -79 258q-86 131 -235.5 131t-242.5 -131 q-89 -126 -89 -272v-13z" />
<glyph unicode="f" d="M219 928v82h279v123q0 193 91 281.5t222 88.5q106 0 266 -67v-103q-25 10 -68.5 31.5t-66 31t-55.5 17.5t-66 8q-106 0 -166.5 -57t-60.5 -164v-190h358v-82h-358v-928h-96v928h-279z" />
<glyph unicode="g" d="M205 580q0 215 97 370.5t300 155.5q84 0 148.5 -31t146.5 -94l29 125h98q-47 -178 -47 -571v-451q0 -115 -37 -202t-95.5 -134t-123 -70.5t-131.5 -23.5q-82 0 -169 42t-147 103l68 60q102 -123 266 -123q109 0 193 87t84 273v133q-55 -59 -140.5 -96t-164.5 -37 q-123 0 -211 76t-126 182.5t-38 225.5zM301 598q0 -121 32 -209t80 -131t92 -61.5t83 -18.5q84 0 167 47t126 119v522q-49 70 -124 114t-159 44q-104 0 -175 -70.5t-96.5 -162t-25.5 -193.5z" />
<glyph unicode="h" d="M266 0v1520h96v-672h5q53 111 148 184.5t212 73.5q94 0 176 -79t82 -239v-788h-96v680q0 344 -178 344q-137 0 -243 -145.5t-106 -333.5v-545h-96z" />
<glyph unicode="i" d="M276 1001v82h412v-1083h-96v1001h-316zM530 1397q0 45 31 75.5t76 30.5t76.5 -30.5t31.5 -75.5t-31.5 -76t-76.5 -31t-76 31t-31 76z" />
<glyph unicode="j" d="M176 57h96q0 -152 48.5 -236.5t173.5 -84.5q104 0 167.5 67.5t63.5 167.5v1030h-326v82h422v-1081q0 -147 -93 -247.5t-232 -100.5q-166 0 -243 114.5t-77 288.5zM653 1397q0 45 31 75.5t76 30.5t76.5 -30.5t31.5 -75.5t-31.5 -76t-76.5 -31t-76 31t-31 76z" />
<glyph unicode="k" d="M311 0v1520h97v-971q295 281 466 534h125l-110 -134l-92 -110l-70 -82q-41 -48 -78 -86l-82 -81l525 -590h-129l-453 535l-102 -101v-434h-97z" />
<glyph unicode="l" d="M258 1438v82h416v-1520h-96v1438h-320z" />
<glyph unicode="m" d="M119 1106h98l27 -141q100 141 254 141q117 0 168 -131q104 131 223 131q102 0 157.5 -61.5t55.5 -165.5v-879h-96v874q0 152 -129 152q-119 0 -199 -139v-887h-96v831q0 53 -5.5 89t-32 70t-77.5 34q-66 0 -125 -46t-88 -112v-866h-96v756q0 190 -39 350z" />
<glyph unicode="n" d="M205 1096h90l39 -312h4q31 125 145.5 223.5t239.5 98.5q135 0 193.5 -95.5t58.5 -238.5v-772h-96v727q0 51 -1 80t-10.5 77t-26 73.5t-49 46t-81.5 20.5q-61 0 -123 -31.5t-118 -97.5t-91 -182.5t-35 -266.5v-446h-96v543q0 338 -43 553z" />
<glyph unicode="o" d="M201 543q0 291 121.5 427t291.5 136q74 0 142.5 -27.5t132 -87t102.5 -175.5t39 -273.5t-38 -273t-102.5 -176t-133 -88.5t-142 -28t-142.5 28t-132.5 88.5t-101 176t-37.5 273.5zM297 543q0 -90 13.5 -167t45 -153t98 -120t161 -44t161 44t99 120t46 153t13.5 167 t-13.5 165.5t-46 151.5t-99 120t-161 44t-161 -44t-98 -120t-45 -151.5t-13.5 -165.5z" />
<glyph unicode="p" d="M209 1094l90 12l37 -178h4q88 178 287 178q72 0 142.5 -31t134 -94t103.5 -179t40 -267q0 -154 -45.5 -269.5t-115 -174t-137 -86.5t-128.5 -28q-152 0 -267 93v-504h-96v1139q0 229 -49 389zM354 166q121 -106 242 -107q53 0 108.5 21.5t114 70t95 149.5t36.5 241 q0 133 -32.5 233t-85 151.5t-104.5 75t-103 23.5q-172 0 -271 -217v-641z" />
<glyph unicode="q" d="M178 535q0 152 39 267.5t103.5 178.5t134 94t143.5 31q199 0 287 -178h4l37 178l90 -12q-47 -154 -47 -389v-1139h-97v504q-117 -92 -268 -93q-61 0 -128.5 28t-137.5 86.5t-115 174t-45 269.5zM274 541q0 -139 37 -240.5t95.5 -150t113.5 -70t109 -21.5q119 0 243 107 v641q-49 102 -111.5 159.5t-160.5 57.5q-51 0 -103.5 -24.5t-104.5 -76t-85 -150.5t-33 -232z" />
<glyph unicode="r" d="M307 1096h92l37 -308q152 317 371 318q123 0 175 -97.5t52 -230.5h-96q-2 51 -5 83t-15.5 75t-42 65.5t-76.5 22.5q-45 0 -102.5 -35t-116 -101.5t-98.5 -184t-40 -263.5v-440h-96v750z" />
<glyph unicode="s" d="M219 152l53 77q72 -72 170.5 -121t188.5 -49q96 0 160.5 52.5t64.5 146.5q0 47 -15.5 85t-35 61.5t-60 47t-66.5 33.5l-77 31q-76 29 -118 49.5t-98 58.5t-83 91t-27 121q0 113 96.5 191.5t221.5 78.5q168 0 326 -115l-41 -80q-158 113 -291 113q-84 0 -149.5 -56.5 t-65.5 -140.5q0 -59 44 -107t87 -69.5t108 -46.5l102 -41q34 -14 88 -45t80.5 -61.5t48 -80.5t21.5 -112q0 -129 -97 -208t-228 -79q-98 0 -214 51.5t-194 123.5z" />
<glyph unicode="t" d="M186 1001v82h244v349h96v-349h398v-82h-398v-739q0 -203 172 -203q164 0 252 193l92 -23q-55 -113 -144 -182.5t-204 -69.5q-264 0 -264 342v682h-244z" />
<glyph unicode="u" d="M256 319v764h96v-718q0 -305 168 -306q139 0 253 151.5t114 434.5v438h96v-534q0 -338 43 -549h-90l-41 307h-4q-33 -125 -146.5 -227.5t-236.5 -102.5q-135 0 -193.5 99.5t-58.5 242.5z" />
<glyph unicode="v" d="M213 1083h102l295 -952l297 952h103l-342 -1097h-113z" />
<glyph unicode="w" d="M102 1083h107l149 -936h4l191 658h104l191 -658h4l149 936h105l-193 -1097h-104l-205 700l-205 -700h-104z" />
<glyph unicode="x" d="M141 0l420 582l-338 501h113l278 -426l273 426h106l-327 -497l421 -586h-129l-346 516l-342 -516h-129z" />
<glyph unicode="y" d="M53 -139l82 43q61 -168 168 -168q37 0 67.5 17.5t56.5 55t38 61.5l33 69l82 186l-353 958h107l293 -831l311 831h111l-406 -1030l-40 -101.5t-49 -100t-66.5 -102.5t-80 -64.5t-104.5 -30.5q-88 0 -154.5 59.5t-95.5 147.5z" />
<glyph unicode="z" d="M209 0v82l672 919h-580v82h694v-82l-665 -919h690v-82h-811z" />
<glyph unicode="{" d="M383 666v4q104 27 134 77t30 160v330q0 158 65.5 218.5t229.5 64.5l4 -4q-117 -18 -160 -79t-43 -184v-329q0 -117 -32.5 -173.5t-139.5 -80.5v-4q109 -25 140.5 -84.5t31.5 -178.5v-319q0 -119 44 -183.5t159 -76.5l-4 -4q-172 2 -233.5 65.5t-61.5 231.5v309 q0 113 -30 163t-134 77z" />
<glyph unicode="|" d="M569 -590v2212h90v-2212h-90z" />
<glyph unicode="}" d="M385 -176q117 18 160 78.5t43 183.5v330q0 117 32.5 173t139.5 81v4q-109 25 -140.5 84t-31.5 178v319q0 119 -44 183.5t-159 77.5l4 4q172 -2 233.5 -65.5t61.5 -231.5v-310q0 -113 29.5 -163t134.5 -76v-4q-104 -27 -134 -77t-30 -161v-330q0 -158 -65.5 -218 t-229.5 -64z" />
<glyph unicode="~" d="M61 618q139 248 297 248q90 0 269.5 -76.5t230.5 -76.5q74 0 140.5 57t103.5 133l65 -47q-51 -96 -132 -164.5t-175 -68.5q-61 0 -250.5 76.5t-240.5 76.5q-55 0 -103.5 -32.5t-71 -62.5t-59.5 -93l-10 -17z" />
<glyph unicode="&#xa0;" />
<glyph unicode="&#xa1;" d="M471 1364q0 57 40 98t97.5 41t98.5 -41t41 -98t-41 -97t-98.5 -40t-97.5 40t-40 97zM543 0l26 1010h82l35 -1010h-143z" />
<glyph unicode="&#xa2;" d="M225 752q0 510 389 573v195h97v-195q193 -14 336 -217l-93 -61q-82 174 -243 196v-960q125 16 260 168l65 -70q-154 -158 -325 -180v-283h-97v283q-199 31 -294 182.5t-95 368.5zM322 768q0 -418 292 -483v956q-292 -57 -292 -473z" />
<glyph unicode="&#xa3;" d="M170 791v81h213q-55 178 -55 285q0 150 105.5 248t252.5 98q121 0 221.5 -59.5t147.5 -165.5l-92 -31q-86 174 -267 174q-115 0 -193.5 -74.5t-78.5 -203.5q0 -78 55 -271h410v-81h-385q57 -225 57 -312q0 -98 -41 -188t-114 -199l4 -4q119 55 196 55q94 0 164 -30 q100 -41 125 -41q59 0 154 80l53 -64q-90 -98 -197 -98q-63 0 -151 35q-94 37 -156 36q-109 0 -248 -84l-57 78q102 174 137 259t35 151q0 121 -59 326h-236z" />
<glyph unicode="&#xa4;" d="M23 219l223 219q-102 139 -102.5 299t102.5 299l-223 219l67 66l221 -219q131 106 303 106t304 -106l221 219l67 -66l-223 -219q102 -139 102 -298.5t-102 -299.5l223 -219l-67 -65l-221 219q-131 -106 -303.5 -106.5t-303.5 106.5l-221 -219zM223 737q0 -166 113 -278.5 t278.5 -112.5t278.5 112.5t113 278.5t-113 279.5t-278.5 113.5t-278.5 -113.5t-113 -279.5z" />
<glyph unicode="&#xa5;" d="M158 1475h114l306 -738l303 738h114l-370 -850v-64h247v-82h-247v-479h-97v479h-245v82h245v64z" />
<glyph unicode="&#xa6;" d="M569 358h90v-716h-90v716zM569 666v716h90v-716h-90z" />
<glyph unicode="&#xa7;" d="M231 827q0 152 158 230q-76 76 -76 178q0 127 81 197.5t210 70.5q150 0 240 -83t82 -236h-97q4 111 -51 174t-166 63q-86 0 -144 -44t-58 -126q0 -23 5 -43t9 -34.5t18.5 -33t20.5 -27.5t27 -27l28 -22q6 -5 33 -24.5t31 -23.5l123 -94q10 -6 57 -42l67 -53 q20 -16 59.5 -52t57 -63.5t33.5 -64.5t16 -74q0 -152 -157 -229q78 -78 77 -178q0 -127 -81.5 -197.5t-208.5 -70.5q-152 0 -241 82.5t-81 236.5h94q-4 -113 51.5 -175t167.5 -62q84 0 143.5 44t59.5 126q0 29 -8 55t-16.5 42.5t-32.5 40.5l-33 31q-8 8 -43 35t-41 31 l-121 94q-10 8 -68.5 51t-83 65.5t-65.5 64.5t-58.5 83t-17.5 84zM328 842q0 -76 78 -150l380 -299q51 18 82 63.5t31 102.5q0 88 -78 150l-379 299q-53 -18 -83.5 -63.5t-30.5 -102.5z" />
<glyph unicode="&#xa8;" d="M311 1335q0 47 34 81t81 34t81 -34t34 -81t-34 -80.5t-81 -33.5t-81 33.5t-34 80.5zM686 1335q0 47 34 81t81 34t80.5 -34t33.5 -81t-33.5 -80.5t-80.5 -33.5t-81 33.5t-34 80.5z" />
<glyph unicode="&#xa9;" d="M0 739q0 317 178 540.5t432 223.5t430.5 -223t176.5 -541q0 -319 -176.5 -543.5t-430.5 -224.5t-432 224.5t-178 543.5zM82 739q0 -281 154.5 -483.5t373.5 -202.5t372 203t153 483q0 279 -154 480.5t-371 201.5q-219 0 -373.5 -201.5t-154.5 -480.5zM299 745 q0 193 91 317t243 124q111 0 187.5 -78t92.5 -211h-82q-12 88 -68 147.5t-128 59.5q-115 0 -184.5 -103.5t-69.5 -252.5q0 -143 71.5 -254t184.5 -111q74 0 130 62.5t64 154.5h82q-12 -133 -90 -216t-186 -83q-147 0 -242.5 128t-95.5 316z" />
<glyph unicode="&#xaa;" d="M360 645v70h486v-70h-486zM365 1030q0 106 57 173t164 67q66 0 145 -25q0 188 -121 189q-72 0 -180 -56l-16 92q150 33 198 33q88 0 142.5 -63.5t54.5 -190.5v-245q0 -33 3 -57.5t12.5 -58.5t13.5 -59l-74 -10l-23 92q-84 -90 -180 -90q-88 0 -142 59.5t-54 149.5z M446 1028q0 -55 31 -96t84 -41q84 0 166 123v153q-90 33 -137 33q-72 0 -108 -49t-36 -123z" />
<glyph unicode="&#xab;" d="M68 729l530 510l59 -61l-469 -449l469 -448l-59 -66zM573 729l531 510l59 -61l-469 -449l469 -448l-59 -66z" />
<glyph unicode="&#xac;" d="M70 829v91h1089v-566h-90v475h-999z" />
<glyph unicode="&#xad;" d="M373 694v82h483v-82h-483z" />
<glyph unicode="&#xae;" d="M0 739q0 317 180 540.5t436 223.5q254 0 433.5 -223t179.5 -541q0 -319 -179.5 -543.5t-433.5 -224.5q-256 0 -436 224.5t-180 543.5zM82 739q0 -283 155.5 -484.5t378.5 -201.5q221 0 376 202t155 484q0 281 -154.5 481.5t-376.5 200.5q-223 0 -378.5 -200.5 t-155.5 -481.5zM389 309v856h297q242 0 242 -227q0 -225 -213 -233l207 -396h-101l-194 396h-156v-396h-82zM471 786h207q168 0 168 156q0 47 -14.5 78t-44 43t-55 16t-64.5 4h-197v-297z" />
<glyph unicode="&#xaf;" d="M319 1292v82h590v-82h-590z" />
<glyph unicode="&#xb0;" d="M219 1124.5q0 163.5 116 279.5t279.5 116t279.5 -116t116 -279.5t-116 -279.5t-279.5 -116t-279.5 116t-116 279.5zM305 1124q0 -127 91 -218t218 -91t218.5 91t91.5 218t-91.5 218.5t-218.5 91.5t-218 -91.5t-91 -218.5z" />
<glyph unicode="&#xb1;" d="M70 96v90h1089v-90h-1089zM70 788v91h499v499h90v-499h500v-91h-500v-499h-90v499h-499z" />
<glyph unicode="&#xb2;" d="M389 692q-2 125 31 201t139 166q6 6 31.5 26.5l39.5 32.5l37 34q24 22 35 38l28 38q15 22 21.5 43t6.5 42q0 57 -33 91t-90 34q-68 0 -104.5 -47.5t-41.5 -118.5h-81q6 104 65 167.5t164 63.5q94 0 148.5 -51t54.5 -143q0 -29 -11.5 -59.5t-22.5 -51t-41 -52.5t-42 -43 l-50 -45q-38 -34 -44 -38q-55 -49 -81 -77t-50.5 -77t-26.5 -108h371v-66h-453z" />
<glyph unicode="&#xb3;" d="M356 825l72 43q59 -127 178 -127q72 0 118 45t46 117q0 184 -213 184v66q72 -4 125 38t53 114q0 57 -42 95t-101 38q-49 0 -90 -34t-64 -81l-69 39q78 141 233 141q88 0 151.5 -59.5t63.5 -147.5q0 -109 -110 -172q145 -63 145 -209q0 -106 -69.5 -172.5t-176.5 -66.5 q-86 0 -143.5 36.5t-106.5 112.5z" />
<glyph unicode="&#xb4;" d="M459 1237l325 266l76 -86l-356 -241z" />
<glyph unicode="&#xb5;" d="M260 -475v1536h96v-631q0 -195 79 -283t173 -88q43 0 85 18.5t85 60.5t68.5 126t25.5 199v598h97v-1061h-97v190h-4q-35 -88 -100.5 -150.5t-149.5 -62.5q-88 0 -155.5 57.5t-102.5 143.5h-4v-653h-96z" />
<glyph unicode="&#xb6;" d="M117 1075q0 47 6 90t35.5 103.5t79 102.5t145.5 73t225 31h504v-82h-94v-1624h-96v1624h-256v-1624h-97v913q-186 -14 -319 96.5t-133 296.5z" />
<glyph unicode="&#xb7;" d="M512 737q0 43 29.5 73t72.5 30t73 -30t30 -73t-30 -72.5t-73 -29.5t-72.5 29.5t-29.5 72.5z" />
<glyph unicode="&#xb8;" d="M451 -352l24 67q94 -37 146 -37q35 0 70.5 19.5t35.5 52.5q0 68 -119 68q-20 0 -44.5 -2t-28.5 -2l73 213h74l-47 -140q80 -2 134 -34.5t54 -106.5q0 -68 -55 -108.5t-125 -40.5q-73 0 -192 51z" />
<glyph unicode="&#xb9;" d="M418 1356v71l241 76v-768h148v-65h-381v65h152v670z" />
<glyph unicode="&#xba;" d="M346 1161q0 143 65.5 242.5t202.5 99.5q131 0 200 -95t69 -247q0 -150 -67.5 -245t-201.5 -95q-131 0 -199.5 92t-68.5 248zM371 645v70h487v-70h-487zM428 1161q0 -270 186 -270q102 0 144.5 79t42.5 191q0 272 -186.5 272t-186.5 -272z" />
<glyph unicode="&#xbb;" d="M66 281l469 448l-469 449l59 61l530 -510l-530 -514zM573 281l469 448l-469 449l60 61l530 -510l-530 -514z" />
<glyph unicode="&#xbc;" d="M109 1356v71l241 76v-768h148v-65h-381v65h151v670zM287 0l674 1503h81l-673 -1503h-82zM653 207v51l299 553h107v-539h117v-65h-117v-207h-82v207h-324zM745 272h232v435h-4z" />
<glyph unicode="&#xbd;" d="M109 1356v71l241 76v-768h148v-65h-381v65h151v670zM254 0l676 1503h84l-678 -1503h-82zM696 0q-2 125 31 200.5t139 166.5q6 6 32 26.5t39 32.5l37 34q24 22 36 38l27 38q15 22 21.5 43t6.5 42q0 57 -33 90.5t-90 33.5q-68 0 -104.5 -47t-40.5 -118h-82 q6 104 65.5 167.5t163.5 63.5q94 0 148.5 -51t54.5 -144q0 -29 -11.5 -59.5t-22.5 -51t-41 -52t-42 -42.5l-50 -45q-38 -34 -44 -38q-55 -49 -81 -77t-50.5 -77t-26.5 -108h371v-66h-453z" />
<glyph unicode="&#xbe;" d="M49 825l72 43q59 -127 178 -127q72 0 118 45t46 117q0 184 -213 184v66q72 -4 125 38t53 114q0 57 -42 95t-101 38q-49 0 -90 -34t-64 -81l-70 39q78 141 234 141q88 0 151.5 -59.5t63.5 -147.5q0 -109 -111 -172q145 -63 146 -209q0 -106 -69.5 -172.5t-176.5 -66.5 q-86 0 -143.5 36.5t-106.5 112.5zM287 0l674 1503h81l-673 -1503h-82zM653 207v51l299 553h107v-539h117v-65h-117v-207h-82v207h-324zM745 272h232v435h-4z" />
<glyph unicode="&#xbf;" d="M283 324q0 111 39.5 173t138.5 140q88 70 103.5 105.5t15.5 148.5v125h96v-201q0 -74 -17 -108q-23 -53 -155 -156q-66 -53 -95.5 -104.5t-29.5 -129.5q0 -119 67.5 -191.5t184.5 -72.5q106 0 170.5 63.5t68.5 168.5h103q-12 -147 -104.5 -230.5t-239.5 -83.5 q-162 0 -254 95.5t-92 257.5zM471 1364q0 57 40 98t97.5 41t98.5 -41t41 -98t-41 -97t-98.5 -40t-97.5 40t-40 97z" />
<glyph unicode="&#xc0;" d="M125 0l491 1534l494 -1534h-109l-133 449h-501l-136 -449h-106zM369 1808l75 86l326 -266l-45 -61zM387 530h461l-232 742z" />
<glyph unicode="&#xc1;" d="M125 0l491 1534l494 -1534h-109l-133 449h-501l-136 -449h-106zM387 530h461l-232 742zM500 1628l325 266l76 -86l-356 -241z" />
<glyph unicode="&#xc2;" d="M125 0l491 1534l494 -1534h-109l-133 449h-501l-136 -449h-106zM281 1610l333 291l334 -291l-47 -51l-287 215l-286 -215zM387 530h461l-232 742z" />
<glyph unicode="&#xc3;" d="M125 0l491 1534l494 -1534h-109l-133 449h-501l-136 -449h-106zM238 1638q86 193 227 193q18 0 35.5 -3t38 -12.5t28.5 -13.5t34 -19.5t30 -17.5q113 -68 151 -67q90 0 133 110l76 -30q-29 -68 -83 -114t-124 -46q-68 0 -172 65q-98 66 -155 66q-86 0 -146 -137zM387 530 h461l-232 742z" />
<glyph unicode="&#xc4;" d="M125 0l491 1534l494 -1534h-109l-133 449h-501l-136 -449h-106zM311 1726.5q0 47.5 34 81t81 33.5t81 -33.5t34 -81t-34 -81t-81 -33.5t-81 33.5t-34 81zM387 530h461l-232 742zM686 1726.5q0 47.5 34 81t81 33.5t80.5 -33.5t33.5 -81t-33.5 -81t-80.5 -33.5t-81 33.5 t-34 81z" />
<glyph unicode="&#xc5;" d="M125 0l491 1534l494 -1534h-109l-133 449h-501l-136 -449h-106zM387 530h461l-232 742zM446 1708q0 70 49.5 119t119 49t118.5 -49t49 -119t-49 -119t-118.5 -49t-119 49t-49.5 119zM520 1708q0 -39 27.5 -66.5t66.5 -27.5t67 27.5t28 66.5t-28 66.5t-67 27.5 t-66.5 -27.5t-27.5 -66.5z" />
<glyph unicode="&#xc6;" d="M66 0l403 1475h637v-82h-426v-588h297v-82h-297v-641h442v-82h-538v455h-297l-117 -455h-104zM309 537h275v856h-54z" />
<glyph unicode="&#xc7;" d="M197 717q0 786 471 786q135 0 231 -86t109 -221h-97q-4 96 -74.5 160.5t-168.5 64.5q-369 0 -369 -694q0 -674 356 -674q115 0 194 76t83 190h96q-16 -160 -111.5 -252t-252.5 -94l-29 -86q80 -2 134 -34.5t54 -106.5q0 -68 -55 -108.5t-125 -40.5q-74 0 -192 51l24 67 q94 -37 146 -37q35 0 70.5 19.5t35.5 52.5q0 68 -119 68q-20 0 -44.5 -2t-28.5 -2l55 161q-96 12 -170 66.5t-115 129.5t-66.5 175t-33.5 187.5t-8 183.5z" />
<glyph unicode="&#xc8;" d="M309 0v1475h721v-82h-624v-594h448v-82h-448v-635h638v-82h-735zM389 1808l76 86l326 -266l-46 -61z" />
<glyph unicode="&#xc9;" d="M309 0v1475h721v-82h-624v-594h448v-82h-448v-635h638v-82h-735zM500 1628l325 266l76 -86l-356 -241z" />
<glyph unicode="&#xca;" d="M309 0v1475h721v-82h-624v-594h448v-82h-448v-635h638v-82h-735zM322 1610l333 291l334 -291l-47 -51l-287 215l-286 -215z" />
<glyph unicode="&#xcb;" d="M309 0v1475h721v-82h-624v-594h448v-82h-448v-635h638v-82h-735zM342 1726.5q0 47.5 34 81t81 33.5t80.5 -33.5t33.5 -81t-33.5 -81t-80.5 -33.5t-81 33.5t-34 81zM717 1726.5q0 47.5 33.5 81t81 33.5t81 -33.5t33.5 -81t-33.5 -81t-81 -33.5t-81 33.5t-33.5 81z" />
<glyph unicode="&#xcc;" d="M360 0v82h205v1311h-205v82h506v-82h-204v-1311h204v-82h-506zM369 1808l75 86l326 -266l-45 -61z" />
<glyph unicode="&#xcd;" d="M360 0v82h205v1311h-205v82h506v-82h-204v-1311h204v-82h-506zM459 1628l325 266l76 -86l-356 -241z" />
<glyph unicode="&#xce;" d="M281 1610l333 291l334 -291l-47 -51l-287 215l-286 -215zM360 0v82h205v1311h-205v82h506v-82h-204v-1311h204v-82h-506z" />
<glyph unicode="&#xcf;" d="M311 1726.5q0 47.5 34 81t81 33.5t81 -33.5t34 -81t-34 -81t-81 -33.5t-81 33.5t-34 81zM360 0v82h205v1311h-205v82h506v-82h-204v-1311h204v-82h-506zM686 1726.5q0 47.5 34 81t81 33.5t80.5 -33.5t33.5 -81t-33.5 -81t-80.5 -33.5t-81 33.5t-34 81z" />
<glyph unicode="&#xd0;" d="M49 725v82h203v668h369q123 0 213 -58.5t139 -150.5q90 -166 90 -529q0 -399 -119 -573q-115 -164 -352 -164h-340v725h-203zM348 82h182q68 0 117 6t99.5 25.5t88 58.5t64.5 98q61 141 62 467q0 346 -68 482q-53 106 -139 140t-224 34h-182v-586h295v-82h-295v-643z" />
<glyph unicode="&#xd1;" d="M238 1638q86 193 227 193q18 0 35.5 -3t38 -12.5t28.5 -13.5t34 -19.5t30 -17.5q113 -68 151 -67q90 0 133 110l76 -30q-29 -68 -83 -114t-124 -46q-68 0 -172 65q-98 66 -155 66q-86 0 -146 -137zM256 0v1475h139l502 -1264l4 4v1260h96v-1489h-100l-541 1355l-4 -4 v-1337h-96z" />
<glyph unicode="&#xd2;" d="M180 737q0 119 7.5 211t34 202t71.5 182.5t128 121.5t197 49q90 0 161 -31.5t115 -74.5t75.5 -118t47 -133.5t24 -149.5t9.5 -136t1 -123q0 -227 -33 -382.5t-96.5 -236.5t-135 -114t-168.5 -33q-76 0 -136 18.5t-118.5 70t-97.5 135.5t-62.5 221t-23.5 321zM283 737 q0 -199 25.5 -338t73.5 -211.5t105.5 -103.5t130.5 -31q160 0 245 153.5t85 530.5q0 199 -24.5 337t-70.5 212t-102.5 104.5t-132.5 30.5q-168 0 -251.5 -158.5t-83.5 -525.5zM369 1808l75 86l326 -266l-45 -61z" />
<glyph unicode="&#xd3;" d="M180 737q0 119 7.5 211t34 202t71.5 182.5t128 121.5t197 49q90 0 161 -31.5t115 -74.5t75.5 -118t47 -133.5t24 -149.5t9.5 -136t1 -123q0 -227 -33 -382.5t-96.5 -236.5t-135 -114t-168.5 -33q-76 0 -136 18.5t-118.5 70t-97.5 135.5t-62.5 221t-23.5 321zM283 737 q0 -199 25.5 -338t73.5 -211.5t105.5 -103.5t130.5 -31q160 0 245 153.5t85 530.5q0 199 -24.5 337t-70.5 212t-102.5 104.5t-132.5 30.5q-168 0 -251.5 -158.5t-83.5 -525.5zM459 1628l325 266l76 -86l-356 -241z" />
<glyph unicode="&#xd4;" d="M180 737q0 119 7.5 211t34 202t71.5 182.5t128 121.5t197 49q90 0 161 -31.5t115 -74.5t75.5 -118t47 -133.5t24 -149.5t9.5 -136t1 -123q0 -227 -33 -382.5t-96.5 -236.5t-135 -114t-168.5 -33q-76 0 -136 18.5t-118.5 70t-97.5 135.5t-62.5 221t-23.5 321zM281 1610 l333 291l334 -291l-47 -51l-287 215l-286 -215zM283 737q0 -199 25.5 -338t73.5 -211.5t105.5 -103.5t130.5 -31q160 0 245 153.5t85 530.5q0 199 -24.5 337t-70.5 212t-102.5 104.5t-132.5 30.5q-168 0 -251.5 -158.5t-83.5 -525.5z" />
<glyph unicode="&#xd5;" d="M180 737q0 119 7.5 211t34 202t71.5 182.5t128 121.5t197 49q90 0 161 -31.5t115 -74.5t75.5 -118t47 -133.5t24 -149.5t9.5 -136t1 -123q0 -227 -33 -382.5t-96.5 -236.5t-135 -114t-168.5 -33q-76 0 -136 18.5t-118.5 70t-97.5 135.5t-62.5 221t-23.5 321zM238 1638 q86 193 227 193q18 0 35.5 -3t38 -12.5t28.5 -13.5t34 -19.5t30 -17.5q113 -68 151 -67q90 0 133 110l76 -30q-29 -68 -83 -114t-124 -46q-68 0 -172 65q-98 66 -155 66q-86 0 -146 -137zM283 737q0 -199 25.5 -338t73.5 -211.5t105.5 -103.5t130.5 -31q160 0 245 153.5 t85 530.5q0 199 -24.5 337t-70.5 212t-102.5 104.5t-132.5 30.5q-168 0 -251.5 -158.5t-83.5 -525.5z" />
<glyph unicode="&#xd6;" d="M180 737q0 119 7.5 211t34 202t71.5 182.5t128 121.5t197 49q90 0 161 -31.5t115 -74.5t75.5 -118t47 -133.5t24 -149.5t9.5 -136t1 -123q0 -227 -33 -382.5t-96.5 -236.5t-135 -114t-168.5 -33q-76 0 -136 18.5t-118.5 70t-97.5 135.5t-62.5 221t-23.5 321zM283 737 q0 -199 25.5 -338t73.5 -211.5t105.5 -103.5t130.5 -31q160 0 245 153.5t85 530.5q0 199 -24.5 337t-70.5 212t-102.5 104.5t-132.5 30.5q-168 0 -251.5 -158.5t-83.5 -525.5zM311 1726.5q0 47.5 34 81t81 33.5t81 -33.5t34 -81t-34 -81t-81 -33.5t-81 33.5t-34 81z M686 1726.5q0 47.5 34 81t81 33.5t80.5 -33.5t33.5 -81t-33.5 -81t-80.5 -33.5t-81 33.5t-34 81z" />
<glyph unicode="&#xd7;" d="M70 258l481 479l-481 482l63 63l481 -481l482 481l63 -63l-481 -482l481 -479l-63 -65l-482 481l-481 -481z" />
<glyph unicode="&#xd8;" d="M168 -8l104 186q-92 184 -92 547q0 80 1 133t10.5 142.5t25.5 150.5t48 133t77 116t114.5 73.5t157.5 29.5q197 0 312 -155l69 127l68 -41l-92 -164q82 -190 82 -520q0 -72 -2 -128.5t-11.5 -142.5t-26 -149.5t-49 -135t-77.5 -116.5t-115 -76t-158 -31q-180 0 -292 135 l-86 -153zM283 725q0 -295 49 -440l540 970q-92 166 -258 166q-70 0 -124 -26.5t-88.5 -61.5t-59.5 -100.5t-36 -110.5t-17 -128t-6 -117v-113v-39zM371 197q88 -143 243 -144q98 0 167 54.5t105 154.5t50 217t14 271q0 264 -41 409z" />
<glyph unicode="&#xd9;" d="M225 356v1119h97v-1047q0 -197 80.5 -286t211.5 -89q133 0 211 85t78 257v1080h96v-1096q0 -199 -119.5 -303.5t-265.5 -104.5q-156 0 -272.5 112.5t-116.5 272.5zM369 1808l75 86l326 -266l-45 -61z" />
<glyph unicode="&#xda;" d="M225 356v1119h97v-1047q0 -197 80.5 -286t211.5 -89q133 0 211 85t78 257v1080h96v-1096q0 -199 -119.5 -303.5t-265.5 -104.5q-156 0 -272.5 112.5t-116.5 272.5zM459 1628l325 266l76 -86l-356 -241z" />
<glyph unicode="&#xdb;" d="M225 356v1119h97v-1047q0 -197 80.5 -286t211.5 -89q133 0 211 85t78 257v1080h96v-1096q0 -199 -119.5 -303.5t-265.5 -104.5q-156 0 -272.5 112.5t-116.5 272.5zM281 1610l333 291l334 -291l-47 -51l-287 215l-286 -215z" />
<glyph unicode="&#xdc;" d="M225 356v1119h97v-1047q0 -197 80.5 -286t211.5 -89q133 0 211 85t78 257v1080h96v-1096q0 -199 -119.5 -303.5t-265.5 -104.5q-156 0 -272.5 112.5t-116.5 272.5zM311 1726.5q0 47.5 34 81t81 33.5t81 -33.5t34 -81t-34 -81t-81 -33.5t-81 33.5t-34 81zM686 1726.5 q0 47.5 34 81t81 33.5t80.5 -33.5t33.5 -81t-33.5 -81t-80.5 -33.5t-81 33.5t-34 81z" />
<glyph unicode="&#xdd;" d="M158 1475h108l309 -738l312 738h108l-370 -850v-625h-97v625zM459 1628l325 266l76 -86l-356 -241z" />
<glyph unicode="&#xde;" d="M297 0v1475h96v-301h236q213 0 309 -126t96 -315q0 -213 -120.5 -323.5t-333.5 -110.5h-187v-299h-96zM393 381h172q186 0 276.5 93t90.5 257q0 190 -85 275.5t-212 85.5h-242v-711z" />
<glyph unicode="&#xdf;" d="M303 0v1190q0 109 85 211t222 102q150 0 241 -108.5t91 -261.5q0 -215 -209 -338q268 -90 268 -410q0 -199 -90 -303.5t-225 -104.5q-86 0 -162 56l43 69q63 -43 127 -43q96 0 153.5 88.5t57.5 227.5q0 193 -91 275.5t-273 94.5v82q133 6 219 93.5t86 220.5 q0 115 -66.5 197.5t-179.5 82.5q-94 0 -147.5 -65.5t-53.5 -179.5v-1176h-96z" />
<glyph unicode="&#xe0;" d="M227 322q0 162 87 273.5t239 111.5q117 0 264 -72q4 211 -43 300t-178 89q-102 0 -260 -72l-23 88q168 66 289 66q150 0 233 -100.5t78 -280.5l-12 -442q-2 -119 53 -293l-88 -13q-31 92 -41 185q-63 -92 -130.5 -138.5t-166.5 -46.5q-141 0 -221 100t-80 245zM324 313 q0 -100 54 -177t150 -77q92 0 158 58.5t125 161.5v280q-127 66 -236 66q-127 0 -189 -90.5t-62 -221.5zM369 1417l75 86l326 -266l-45 -61z" />
<glyph unicode="&#xe1;" d="M227 322q0 162 87 273.5t239 111.5q117 0 264 -72q4 211 -43 300t-178 89q-102 0 -260 -72l-23 88q168 66 289 66q150 0 233 -100.5t78 -280.5l-12 -442q-2 -119 53 -293l-88 -13q-31 92 -41 185q-63 -92 -130.5 -138.5t-166.5 -46.5q-141 0 -221 100t-80 245zM324 313 q0 -100 54 -177t150 -77q92 0 158 58.5t125 161.5v280q-127 66 -236 66q-127 0 -189 -90.5t-62 -221.5zM479 1237l326 266l76 -86l-357 -241z" />
<glyph unicode="&#xe2;" d="M227 322q0 162 87 273.5t239 111.5q117 0 264 -72q4 211 -43 300t-178 89q-102 0 -260 -72l-23 88q168 66 289 66q150 0 233 -100.5t78 -280.5l-12 -442q-2 -119 53 -293l-88 -13q-31 92 -41 185q-63 -92 -130.5 -138.5t-166.5 -46.5q-141 0 -221 100t-80 245zM281 1219 l333 290l334 -290l-47 -52l-287 215l-286 -215zM324 313q0 -100 54 -177t150 -77q92 0 158 58.5t125 161.5v280q-127 66 -236 66q-127 0 -189 -90.5t-62 -221.5z" />
<glyph unicode="&#xe3;" d="M227 322q0 162 87 273.5t239 111.5q117 0 264 -72q4 211 -43 300t-178 89q-102 0 -260 -72l-23 88q168 66 289 66q150 0 233 -100.5t78 -280.5l-12 -442q-2 -119 53 -293l-88 -13q-31 92 -41 185q-63 -92 -130.5 -138.5t-166.5 -46.5q-141 0 -221 100t-80 245zM238 1247 q86 193 227 193q18 0 35.5 -3t38 -12.5t28.5 -13.5t34 -19.5t30 -17.5q113 -68 151 -67q90 0 133 110l76 -31q-29 -68 -83 -113.5t-124 -45.5q-68 0 -172 65q-98 66 -155 66q-86 0 -146 -137zM324 313q0 -100 54 -177t150 -77q92 0 158 58.5t125 161.5v280q-127 66 -236 66 q-127 0 -189 -90.5t-62 -221.5z" />
<glyph unicode="&#xe4;" d="M227 322q0 162 87 273.5t239 111.5q117 0 264 -72q4 211 -43 300t-178 89q-102 0 -260 -72l-23 88q168 66 289 66q150 0 233 -100.5t78 -280.5l-12 -442q-2 -119 53 -293l-88 -13q-31 92 -41 185q-63 -92 -130.5 -138.5t-166.5 -46.5q-141 0 -221 100t-80 245zM291 1335 q0 47 33.5 81t81 34t81 -34t33.5 -81t-33.5 -80.5t-81 -33.5t-81 33.5t-33.5 80.5zM324 313q0 -100 54 -177t150 -77q92 0 158 58.5t125 161.5v280q-127 66 -236 66q-127 0 -189 -90.5t-62 -221.5zM666 1335q0 47 33.5 81t80.5 34t81 -34t34 -81t-34 -80.5t-81 -33.5 t-80.5 33.5t-33.5 80.5z" />
<glyph unicode="&#xe5;" d="M227 322q0 162 87 273.5t239 111.5q117 0 264 -72q4 211 -43 300t-178 89q-102 0 -260 -72l-23 88q168 66 289 66q150 0 233 -100.5t78 -280.5l-12 -442q-2 -119 53 -293l-88 -13q-31 92 -41 185q-63 -92 -130.5 -138.5t-166.5 -46.5q-141 0 -221 100t-80 245zM324 313 q0 -100 54 -177t150 -77q92 0 158 58.5t125 161.5v280q-127 66 -236 66q-127 0 -189 -90.5t-62 -221.5zM436 1351.5q0 69.5 49.5 119t119 49.5t118.5 -49.5t49 -119t-49 -118.5t-118.5 -49t-119 49t-49.5 118.5zM510 1352q0 -39 27.5 -67t66.5 -28t66.5 28t27.5 67 t-27.5 66.5t-66.5 27.5t-66.5 -27.5t-27.5 -66.5z" />
<glyph unicode="&#xe6;" d="M96 319q0 158 82 269.5t236 111.5q78 0 151 -36v155q0 205 -131 205q-41 0 -87 -17.5t-72.5 -33t-84.5 -53.5l-22 86q172 102 266 102q115 0 172 -86q78 84 199 84q150 0 237 -154q45 -78 68 -193.5t14 -228.5h-462v-262q0 -111 30.5 -160t106.5 -49q109 0 299 115 l35 -80q-203 -117 -332 -117q-141 0 -195 95q-92 -94 -225 -95q-137 0 -211 99.5t-74 242.5zM193 313q0 -102 54 -178t154 -76q49 0 82 16.5t49.5 34t23.5 59.5t8 64.5t1 75.5v262q-76 47 -157 47q-111 0 -163 -93t-52 -212zM662 612h366q0 63 -10 128t-35 132.5t-75 109.5 t-120 42q-68 0 -97 -46t-29 -153v-213z" />
<glyph unicode="&#xe7;" d="M225 530q0 158 40 275t107.5 179.5t141.5 92t156 29.5q227 0 372 -219l-86 -58q-98 195 -286 195q-45 0 -88 -11.5t-92.5 -44t-85 -83.5t-59 -138.5t-23.5 -199.5q0 -254 106.5 -371t247.5 -117q154 0 295 170l65 -69q-168 -182 -358 -183q-8 0 -12 3l-31 -93 q80 -2 134 -34.5t54 -106.5q0 -68 -55 -108.5t-125 -40.5q-74 0 -192 51l24 67q94 -37 146 -37q35 0 70.5 19.5t35.5 52.5q0 68 -119 68q-20 0 -44.5 -2t-28.5 -2l59 172q-154 27 -261.5 157.5t-107.5 386.5z" />
<glyph unicode="&#xe8;" d="M199 536.5q0 147.5 41 270.5t144 211t255 88q74 0 140.5 -28.5t126 -91t95 -181.5t35.5 -279h-741q23 -467 342 -467q164 0 342 107l41 -90q-221 -98 -387 -99q-150 0 -252 85t-142 206t-40 268.5zM295 608h645q8 154 -78 285t-235.5 131t-242.5 -131t-89 -285zM369 1417 l75 86l326 -266l-45 -61z" />
<glyph unicode="&#xe9;" d="M199 536.5q0 147.5 41 270.5t144 211t255 88q74 0 140.5 -28.5t126 -91t95 -181.5t35.5 -279h-741q23 -467 342 -467q164 0 342 107l41 -90q-221 -98 -387 -99q-150 0 -252 85t-142 206t-40 268.5zM295 608h645q8 154 -78 285t-235.5 131t-242.5 -131t-89 -285zM500 1237 l325 266l76 -86l-356 -241z" />
<glyph unicode="&#xea;" d="M199 536.5q0 147.5 41 270.5t144 211t255 88q74 0 140.5 -28.5t126 -91t95 -181.5t35.5 -279h-741q23 -467 342 -467q164 0 342 107l41 -90q-221 -98 -387 -99q-150 0 -252 85t-142 206t-40 268.5zM281 1219l333 290l334 -290l-47 -52l-287 215l-286 -215zM295 608h645 q8 154 -78 285t-235.5 131t-242.5 -131t-89 -285z" />
<glyph unicode="&#xeb;" d="M199 536.5q0 147.5 41 270.5t144 211t255 88q74 0 140.5 -28.5t126 -91t95 -181.5t35.5 -279h-741q23 -467 342 -467q164 0 342 107l41 -90q-221 -98 -387 -99q-150 0 -252 85t-142 206t-40 268.5zM295 608h645q8 154 -78 285t-235.5 131t-242.5 -131t-89 -285zM311 1335 q0 47 34 81t81 34t81 -34t34 -81t-34 -80.5t-81 -33.5t-81 33.5t-34 80.5zM686 1335q0 47 34 81t81 34t80.5 -34t33.5 -81t-33.5 -80.5t-80.5 -33.5t-81 33.5t-34 80.5z" />
<glyph unicode="&#xec;" d="M276 1001v82h412v-1083h-96v1001h-316zM369 1417l75 86l326 -266l-45 -61z" />
<glyph unicode="&#xed;" d="M276 1001v82h412v-1083h-96v1001h-316zM418 1237l325 266l76 -86l-356 -241z" />
<glyph unicode="&#xee;" d="M199 1219l333 290l334 -290l-47 -52l-287 215l-286 -215zM276 1001v82h412v-1083h-96v1001h-316z" />
<glyph unicode="&#xef;" d="M276 1001v82h412v-1083h-96v1001h-316zM311 1335q0 47 34 81t81 34t81 -34t34 -81t-34 -80.5t-81 -33.5t-81 33.5t-34 80.5zM686 1335q0 47 34 81t81 34t80.5 -34t33.5 -81t-33.5 -80.5t-80.5 -33.5t-81 33.5t-34 80.5z" />
<glyph unicode="&#xf0;" d="M201 543q0 291 121.5 427t291.5 136q150 0 248 -117l4 4q-76 182 -231 318l-291 -140l-61 62l282 135q-117 82 -227 111l68 41q129 -25 249 -109l224 109l59 -64l-211 -102q137 -121 220 -312.5t83 -427.5q0 -637 -416 -637q-74 0 -142.5 28t-132 88.5t-101 176 t-37.5 273.5zM297 543q0 -90 13.5 -167t45 -153t98 -120t161 -44t161 44t99 120t46 153t13.5 167t-13.5 165.5t-46 151.5t-99 120t-161 44t-161 -44t-98 -120t-45 -151.5t-13.5 -165.5z" />
<glyph unicode="&#xf1;" d="M205 1096h90l39 -312h4q31 125 145.5 223.5t239.5 98.5q135 0 193.5 -95.5t58.5 -238.5v-772h-96v727q0 51 -1 80t-10.5 77t-26 73.5t-49 46t-81.5 20.5q-61 0 -123 -31.5t-118 -97.5t-91 -182.5t-35 -266.5v-446h-96v543q0 338 -43 553zM217 1247q86 193 227 193 q18 0 36 -3t38.5 -12.5t28.5 -13.5t33.5 -19.5t29.5 -17.5q113 -68 152 -67q90 0 133 110l76 -31q-29 -68 -83 -113.5t-124 -45.5q-68 0 -172 65q-98 66 -156 66q-86 0 -145 -137z" />
<glyph unicode="&#xf2;" d="M201 543q0 291 121.5 427t291.5 136q74 0 142.5 -27.5t132 -87t102.5 -175.5t39 -273.5t-38 -273t-102.5 -176t-133 -88.5t-142 -28t-142.5 28t-132.5 88.5t-101 176t-37.5 273.5zM297 543q0 -90 13.5 -167t45 -153t98 -120t161 -44t161 44t99 120t46 153t13.5 167 t-13.5 165.5t-46 151.5t-99 120t-161 44t-161 -44t-98 -120t-45 -151.5t-13.5 -165.5zM369 1417l75 86l326 -266l-45 -61z" />
<glyph unicode="&#xf3;" d="M201 543q0 291 121.5 427t291.5 136q74 0 142.5 -27.5t132 -87t102.5 -175.5t39 -273.5t-38 -273t-102.5 -176t-133 -88.5t-142 -28t-142.5 28t-132.5 88.5t-101 176t-37.5 273.5zM297 543q0 -90 13.5 -167t45 -153t98 -120t161 -44t161 44t99 120t46 153t13.5 167 t-13.5 165.5t-46 151.5t-99 120t-161 44t-161 -44t-98 -120t-45 -151.5t-13.5 -165.5zM500 1237l325 266l76 -86l-356 -241z" />
<glyph unicode="&#xf4;" d="M201 543q0 291 121.5 427t291.5 136q74 0 142.5 -27.5t132 -87t102.5 -175.5t39 -273.5t-38 -273t-102.5 -176t-133 -88.5t-142 -28t-142.5 28t-132.5 88.5t-101 176t-37.5 273.5zM281 1219l333 290l334 -290l-47 -52l-287 215l-286 -215zM297 543q0 -90 13.5 -167 t45 -153t98 -120t161 -44t161 44t99 120t46 153t13.5 167t-13.5 165.5t-46 151.5t-99 120t-161 44t-161 -44t-98 -120t-45 -151.5t-13.5 -165.5z" />
<glyph unicode="&#xf5;" d="M201 543q0 291 121.5 427t291.5 136q74 0 142.5 -27.5t132 -87t102.5 -175.5t39 -273.5t-38 -273t-102.5 -176t-133 -88.5t-142 -28t-142.5 28t-132.5 88.5t-101 176t-37.5 273.5zM238 1247q86 193 227 193q18 0 35.5 -3t38 -12.5t28.5 -13.5t34 -19.5t30 -17.5 q113 -68 151 -67q90 0 133 110l76 -31q-29 -68 -83 -113.5t-124 -45.5q-68 0 -172 65q-98 66 -155 66q-86 0 -146 -137zM297 543q0 -90 13.5 -167t45 -153t98 -120t161 -44t161 44t99 120t46 153t13.5 167t-13.5 165.5t-46 151.5t-99 120t-161 44t-161 -44t-98 -120 t-45 -151.5t-13.5 -165.5z" />
<glyph unicode="&#xf6;" d="M201 543q0 291 121.5 427t291.5 136q74 0 142.5 -27.5t132 -87t102.5 -175.5t39 -273.5t-38 -273t-102.5 -176t-133 -88.5t-142 -28t-142.5 28t-132.5 88.5t-101 176t-37.5 273.5zM297 543q0 -90 13.5 -167t45 -153t98 -120t161 -44t161 44t99 120t46 153t13.5 167 t-13.5 165.5t-46 151.5t-99 120t-161 44t-161 -44t-98 -120t-45 -151.5t-13.5 -165.5zM311 1335q0 47 34 81t81 34t81 -34t34 -81t-34 -80.5t-81 -33.5t-81 33.5t-34 80.5zM686 1335q0 47 34 81t81 34t80.5 -34t33.5 -81t-33.5 -80.5t-80.5 -33.5t-81 33.5t-34 80.5z" />
<glyph unicode="&#xf7;" d="M70 692v90h1089v-90h-1089zM526 420q0 37 26 62.5t62.5 25.5t62 -25.5t25.5 -62.5t-25.5 -62.5t-62 -25.5t-62.5 25.5t-26 62.5zM526 1055q0 37 26 62.5t62.5 25.5t62 -25.5t25.5 -62.5t-25.5 -62.5t-62 -25.5t-62.5 25.5t-26 62.5z" />
<glyph unicode="&#xf8;" d="M201 543q0 291 121.5 427t293.5 136q131 0 236 -82l72 123l63 -45l-80 -131q123 -145 123 -428q0 -293 -122 -429.5t-292 -136.5q-139 0 -249 93l-74 -127l-64 45l84 137q-112 146 -112 418zM297 543q0 -209 68 -334l444 743q-74 72 -193 72q-94 0 -160.5 -44t-99 -120 t-46 -151.5t-13.5 -165.5zM412 141q74 -82 204 -82q94 0 161 44t98.5 120t45 153t13.5 167q0 223 -74 348z" />
<glyph unicode="&#xf9;" d="M256 319v764h96v-718q0 -305 168 -306q139 0 253 151.5t114 434.5v438h96v-534q0 -338 43 -549h-90l-41 307h-4q-33 -125 -146.5 -227.5t-236.5 -102.5q-135 0 -193.5 99.5t-58.5 242.5zM348 1417l76 86l326 -266l-45 -61z" />
<glyph unicode="&#xfa;" d="M256 319v764h96v-718q0 -305 168 -306q139 0 253 151.5t114 434.5v438h96v-534q0 -338 43 -549h-90l-41 307h-4q-33 -125 -146.5 -227.5t-236.5 -102.5q-135 0 -193.5 99.5t-58.5 242.5zM489 1237l326 266l76 -86l-356 -241z" />
<glyph unicode="&#xfb;" d="M256 319v764h96v-718q0 -305 168 -306q139 0 253 151.5t114 434.5v438h96v-534q0 -338 43 -549h-90l-41 307h-4q-33 -125 -146.5 -227.5t-236.5 -102.5q-135 0 -193.5 99.5t-58.5 242.5zM281 1219l333 290l334 -290l-47 -52l-287 215l-286 -215z" />
<glyph unicode="&#xfc;" d="M256 319v764h96v-718q0 -305 168 -306q139 0 253 151.5t114 434.5v438h96v-534q0 -338 43 -549h-90l-41 307h-4q-33 -125 -146.5 -227.5t-236.5 -102.5q-135 0 -193.5 99.5t-58.5 242.5zM311 1335q0 47 34 81t81 34t81 -34t34 -81t-34 -80.5t-81 -33.5t-81 33.5t-34 80.5 zM686 1335q0 47 34 81t81 34t80.5 -34t33.5 -81t-33.5 -80.5t-80.5 -33.5t-81 33.5t-34 80.5z" />
<glyph unicode="&#xfd;" d="M53 -139l82 43q61 -168 168 -168q37 0 67.5 17.5t56.5 55t38 61.5l33 69l82 186l-353 958h107l293 -831l311 831h111l-406 -1030l-40 -101.5t-49 -100t-66.5 -102.5t-80 -64.5t-104.5 -30.5q-88 0 -154.5 59.5t-95.5 147.5zM489 1237l326 266l76 -86l-356 -241z" />
<glyph unicode="&#xfe;" d="M258 -434v1954h96v-568h4q61 82 120 118t149 36q72 0 142.5 -31t134 -94t103.5 -179t40 -267q0 -154 -45.5 -269.5t-115 -174t-137 -86.5t-128.5 -28q-152 0 -267 93v-504h-96zM354 166q121 -106 242 -107q53 0 108.5 21.5t114 70t95 149.5t36.5 241q0 133 -32.5 233 t-85 151.5t-104.5 75t-103 23.5q-172 0 -271 -217v-641z" />
<glyph unicode="&#xff;" d="M53 -139l82 43q61 -168 168 -168q37 0 67.5 17.5t56.5 55t38 61.5l33 69l82 186l-353 958h107l293 -831l311 831h111l-406 -1030l-40 -101.5t-49 -100t-66.5 -102.5t-80 -64.5t-104.5 -30.5q-88 0 -154.5 59.5t-95.5 147.5zM332 1335q0 47 33.5 81t81 34t81 -34t33.5 -81 t-33.5 -80.5t-81 -33.5t-81 33.5t-33.5 80.5zM707 1335q0 47 33.5 81t80.5 34t81 -34t34 -81t-34 -80.5t-81 -33.5t-80.5 33.5t-33.5 80.5z" />
<glyph unicode="&#x152;" d="M74 748q0 221 33.5 374.5t98 233.5t140.5 113.5t176 33.5q68 0 150 -28h522v-82h-426v-588h297v-82h-297v-641h442v-82h-538q-23 -8 -78 -23q-41 -6 -82 -6q-88 0 -157.5 28t-114.5 71t-78 110.5t-49.5 129t-25.5 149.5t-11 146.5t-2 142.5zM176 741q0 -88 2 -139 t10.5 -146.5t30 -153.5t57 -121.5t96 -95.5t142.5 -32q76 0 158 35v1294q-90 39 -158 39q-76 0 -134 -29.5t-94 -85t-59.5 -116t-34 -145t-13.5 -147t-3 -144.5v-13z" />
<glyph unicode="&#x153;" d="M102 543q0 272 105.5 418.5t241.5 146.5q84 0 174 -70q70 68 182 68q33 0 62.5 -5t81.5 -37t88 -88t62.5 -172t24.5 -274h-471v-262q0 -109 35 -159t111 -50q109 0 299 115l35 -80q-203 -117 -332 -117q-117 0 -195 86q-66 -86 -160 -86q-129 0 -236.5 141.5 t-107.5 424.5zM199 543q0 -238 75.5 -361t165.5 -123q70 0 117 76v844q-20 45 -92 45q-111 0 -188.5 -113.5t-77.5 -367.5zM653 612h375q0 63 -10 128t-35 132.5t-75 109.5t-119.5 42t-102.5 -47t-33 -152v-213z" />
<glyph unicode="&#x178;" d="M158 1475h108l309 -738l312 738h108l-370 -850v-625h-97v625zM270 1726.5q0 47.5 34 81t81 33.5t81 -33.5t34 -81t-34 -81t-81 -33.5t-81 33.5t-34 81zM645 1726.5q0 47.5 34 81t81 33.5t80.5 -33.5t33.5 -81t-33.5 -81t-80.5 -33.5t-81 33.5t-34 81z" />
<glyph unicode="&#x2c6;" d="M281 1219l333 290l334 -290l-47 -52l-287 215l-286 -215z" />
<glyph unicode="&#x2dc;" d="M238 1247q86 193 227 193q18 0 35.5 -3t38 -12.5t28.5 -13.5t34 -19.5t30 -17.5q113 -68 151 -67q90 0 133 110l76 -31q-29 -68 -83 -113.5t-124 -45.5q-68 0 -172 65q-98 66 -155 66q-86 0 -146 -137z" />
<glyph unicode="&#x2013;" d="M254 694v82h721v-82h-721z" />
<glyph unicode="&#x2014;" d="M0 442v148h1229v-148h-1229z" />
<glyph unicode="&#x2018;" d="M498 1210q0 102 83 182.5t191 110.5v-86q-125 -37 -160 -121q4 0 17.5 3.5t21.5 3.5q57 0 91 -35t34 -92.5t-40 -95.5t-95 -38q-63 0 -103 50t-40 118z" />
<glyph unicode="&#x2019;" d="M498 1370q0 57 40 95t95 38q63 0 103 -50t40 -118q0 -102 -83 -182t-191 -111v86q125 37 160 121q-4 0 -17.5 -3t-21.5 -3q-57 0 -91 35t-34 92z" />
<glyph unicode="&#x201a;" d="M498 104.5q0 57.5 40 95.5t95 38q63 0 103 -50.5t40 -117.5q0 -102 -83 -182.5t-191 -110.5v86q125 37 160 121q-8 0 -21 -4q-2 0 -8 -1.5t-10 -1.5q-57 0 -91 35t-34 92.5z" />
<glyph unicode="&#x201c;" d="M268 1210q0 102 83 182.5t192 110.5v-86q-125 -37 -160 -121q4 0 17.5 3.5t21.5 3.5q57 0 91 -35t34 -92.5t-40 -95.5t-95 -38q-63 0 -103.5 50t-40.5 118zM725 1210q0 102 83 182.5t191 110.5v-86q-125 -37 -159 -121q4 0 18 3.5t21 3.5q57 0 91 -35t34 -92.5t-40 -95.5 t-96 -38q-66 0 -104.5 50t-38.5 118z" />
<glyph unicode="&#x201d;" d="M268 1370q0 57 40 95t95 38q63 0 103.5 -50t40.5 -118q0 -102 -83 -182t-192 -111v86q125 37 160 121q-4 0 -17.5 -3t-21.5 -3q-57 0 -91 35t-34 92zM725 1370q0 57 40 95t95 38q66 0 105 -50t39 -118q0 -102 -83 -182t-192 -111v86q125 37 160 121q-4 0 -18.5 -3 t-20.5 -3q-57 0 -91 35t-34 92z" />
<glyph unicode="&#x201e;" d="M268 104.5q0 57.5 40 95.5t95 38q63 0 103.5 -50.5t40.5 -117.5q0 -102 -83 -182.5t-192 -110.5v86q125 37 160 121q-8 0 -20 -4q-2 0 -8.5 -1.5t-10.5 -1.5q-57 0 -91 35t-34 92.5zM725 104.5q0 57.5 40 95.5t95 38q66 0 105 -50.5t39 -117.5q0 -102 -83 -182.5 t-192 -110.5v86q125 37 160 121q-8 0 -21 -4q-4 0 -10 -1.5t-8 -1.5q-57 0 -91 35t-34 92.5z" />
<glyph unicode="&#x2022;" d="M362 516q0 102 75 177t177.5 75t177 -75t74.5 -177q0 -104 -73.5 -178t-178.5 -74q-106 0 -179 73t-73 179z" />
<glyph unicode="&#x2026;" d="M78 98.5q0 53.5 38 91t89 37.5q53 0 91 -37.5t38 -91.5q0 -51 -38 -89t-91 -38t-90 37t-37 90.5zM485 98.5q0 53.5 38 91t89.5 37.5t90 -37.5t38.5 -91.5q0 -51 -37.5 -89t-91.5 -38q-51 0 -89 37t-38 90.5zM893 98.5q0 53.5 38 91t89 37.5q53 0 91 -37.5t38 -91.5 q0 -51 -38 -89t-91 -38t-90 37t-37 90.5z" />
<glyph unicode="&#x2039;" d="M274 729l531 510l59 -61l-469 -449l469 -448l-59 -66z" />
<glyph unicode="&#x203a;" d="M365 281l469 448l-469 449l59 61l530 -510l-530 -514z" />
<glyph unicode="&#x20ac;" d="M123 588l12 84h109v131h-121l12 84h115q8 104 29.5 197.5t67.5 194.5t137 161.5t216 60.5q143 0 235.5 -83t100.5 -224h-90q0 80 -65.5 151.5t-180.5 71.5q-94 0 -164.5 -48t-109.5 -131t-58.5 -168t-25.5 -183h453l-13 -84h-444v-131h428l-12 -84h-412q27 -530 352 -531 q123 0 198 81t75 179v9h88q0 -31 -7.5 -70t-32 -90t-61 -92t-104.5 -70t-154 -29q-408 0 -448 613h-125z" />
<glyph unicode="&#x2122;" d="M20 1421v82h469v-82h-192v-495h-82v495h-195zM559 926v577h139l166 -407l172 407h135v-577h-81v495h-5l-196 -495h-53l-191 495h-4v-495h-82z" />
<glyph unicode="&#xe000;" horiz-adv-x="1085" d="M0 1085h1085v-1085h-1085v1085z" />
<glyph unicode="&#xfb01;" d="M86 1001v82h205v72q0 168 93 258t222 90q23 0 46.5 -3t41 -5t45 -10t40 -12.5l44 -16.5t38.5 -15t43 -17.5t40 -16.5v-111q-14 6 -74.5 39t-88 45.5t-77 26.5t-90.5 14q-227 0 -227 -254v-84h578v-1083h-97v1001h-481v-1001h-96v1001h-205z" />
<glyph unicode="&#xfb02;" d="M84 1004v81h205v72q0 168 94 259t221 87q82 -2 160 -26.5t231 -90.5v-1386h-96v1323q-10 4 -44 21.5t-49 23.5t-46 19.5t-50.5 19.5t-46 11t-51.5 5q-113 2 -170 -65.5t-57 -190.5v-84h303v-79h-303v-1004h-96v1004h-205z" />
<glyph unicode="&#xfb03;" horiz-adv-x="3686" d="M2734 1001v82h412v-1083h-96v1001h-316zM2988 1397q0 45 31 75.5t76 30.5t76.5 -30.5t31.5 -75.5t-31.5 -76t-76.5 -31t-76 31t-31 76zM1448 928v82h279v123q0 193 91 281.5t222 88.5q106 0 266 -67v-103q-25 10 -68.5 31.5t-66 31t-55.5 17.5t-66 8q-106 0 -166.5 -57 t-60.5 -164v-190h358v-82h-358v-928h-96v928h-279zM219 928v82h279v123q0 193 91 281.5t222 88.5q106 0 266 -67v-103q-25 10 -68.5 31.5t-66 31t-55.5 17.5t-66 8q-106 0 -166.5 -57t-60.5 -164v-190h358v-82h-358v-928h-96v928h-279z" />
<glyph unicode="&#xfb04;" horiz-adv-x="3686" d="M2716 1438v82h416v-1520h-96v1438h-320zM1448 928v82h279v123q0 193 91 281.5t222 88.5q106 0 266 -67v-103q-25 10 -68.5 31.5t-66 31t-55.5 17.5t-66 8q-106 0 -166.5 -57t-60.5 -164v-190h358v-82h-358v-928h-96v928h-279zM219 928v82h279v123q0 193 91 281.5 t222 88.5q106 0 266 -67v-103q-25 10 -68.5 31.5t-66 31t-55.5 17.5t-66 8q-106 0 -166.5 -57t-60.5 -164v-190h358v-82h-358v-928h-96v928h-279z" />
</font>
</defs>
</svg>
