<?xml version="1.0" standalone="no"?>
<!DOCTYPE svg PUBLIC "-//W3C//DTD SVG 1.1//EN" "http://www.w3.org/Graphics/SVG/1.1/DTD/svg11.dtd" >
<svg xmlns="http://www.w3.org/2000/svg">
<metadata>
This is a custom SVG webfont generated by Font Squirrel.
Copyright   : Copyright  1987 1990 1991 1995 1998 2001 Adobe Systems Incorporated  All Rights Reserved
Designer    : Roger Roberson
Foundry URL : httpwwwadobecomtype
</metadata>
<defs>
<font id="LetterGothicStdSlanted" horiz-adv-x="1228" >
<font-face units-per-em="2048" ascent="1520" descent="-528" />
<missing-glyph horiz-adv-x="500" />
<glyph unicode=" " />
<glyph unicode="!" d="M493.5 108.5q12.5 57.5 61.5 98.5t106.5 41t89 -41t19.5 -98.5t-61.5 -97.5t-106.5 -40t-89 40t-19.5 97.5zM676 465l180 1010h143l-241 -1010h-82z" />
<glyph unicode="&#x22;" d="M618 971l3 276l49 228h192l-49 -228l-113 -276h-82zM944 971l2 276l49 228h193l-49 -228l-113 -276h-82z" />
<glyph unicode="#" d="M63 489l17 91h274l58 321h-275l17 90h274l119 658h90l-332 -1846h-92l125 686h-275zM582 -197l338 1846h90l-119 -658h276l-18 -90h-275l-57 -321h275l-17 -91h-274l-127 -686h-92z" />
<glyph unicode="$" d="M297 276l74 72q111 -125 233 -135l113 532q-113 39 -177.5 123t-37.5 205q25 119 126 201t222 96l33 150h96l-33 -150q154 -14 268 -129l-73 -76q-98 113 -211 123l-101 -473q135 -51 198 -136t32 -228q-31 -139 -132.5 -223.5t-242.5 -96.5l-43 -194h-96l43 194 q-176 2 -291 145zM598 1067q-16 -78 27 -139.5t112 -89.5l94 446q-82 -12 -148.5 -72.5t-84.5 -144.5zM700 213q90 4 165 71.5t96 161.5q39 193 -152 279z" />
<glyph unicode="%" d="M195 0l1073 1503h86l-1073 -1503h-86zM418 1133q31 143 132 256.5t238 113.5q197 0 154 -213q-35 -166 -146.5 -270.5t-228.5 -104.5q-100 0 -136 59t-13 159zM504 1116q-31 -139 80 -139q98 0 172.5 109.5t99.5 220.5q12 57 -5 96t-73 39q-100 0 -175.5 -106.5 t-98.5 -219.5zM602 195q31 143 133.5 256.5t239.5 113.5q197 0 153 -213q-35 -166 -146.5 -270.5t-227.5 -104.5q-197 1 -152 218zM688 178q-31 -139 82 -139q98 0 172 109.5t98 220.5q12 57 -5 96t-72 39q-100 0 -176 -106.5t-99 -219.5z" />
<glyph unicode="&#x26;" d="M238 289q20 94 80.5 190t107.5 146.5t156 156.5l26 27q-23 57 -33 87t-26.5 90.5t-12.5 94.5l9 101q29 133 113.5 227t213.5 94q98 0 147.5 -80t24.5 -188q-6 -27 -15 -52.5t-17 -46t-26 -46.5l-28 -43q-10 -16 -34.5 -44t-33.5 -39.5t-39 -40.5l-39 -39l-44 -42 q-35 -33 -41 -39l188 -471q63 119 119 395h103q-80 -326 -176 -481l131 -209l-82 -70l-121 191q-174 -186 -385 -187q-147 0 -222 86.5t-44 231.5zM342 295q-25 -109 22.5 -175.5t155.5 -66.5q197 0 336 176l-217 488q-72 -72 -98.5 -100.5t-79.5 -91t-80 -117t-39 -113.5z M644 1036.5q9 -63.5 46 -157.5q174 193 216 259t42 160q0 43 -24.5 83t-79.5 40q-74 0 -125 -67.5t-68 -149.5q-16 -104 -7 -167.5z" />
<glyph unicode="'" d="M780 971l2 276l49 228h193l-49 -228l-113 -276h-82z" />
<glyph unicode="(" d="M504 375.5q-4 150.5 26 312.5q55 250 198.5 476.5t358.5 355.5l31 -62q-377 -246 -491 -770q-111 -522 164 -770l-58 -59q-109 88 -167 227t-62 289.5z" />
<glyph unicode=")" d="M401 -82q199 129 321 332t171 438q29 152 31 289t-47.5 266t-147.5 215l59 62q109 -88 167.5 -227.5t61.5 -291t-28 -313.5q-53 -248 -196.5 -474t-358.5 -355z" />
<glyph unicode="*" d="M391 1100l43 86l363 -115l86 404h88l-86 -404l411 115l9 -86l-424 -115l186 -321l-80 -54l-178 310l-303 -310l-57 54l315 321z" />
<glyph unicode="+" d="M213 692v90h500v500h90v-500h500v-90h-500v-499h-90v499h-500z" />
<glyph unicode="," d="M453 -227l18 86q131 37 186 121q-8 0 -20 -5q-4 0 -11.5 -1t-9.5 -1q-57 0 -82.5 35t-15.5 92q12 57 60.5 95t103.5 38q66 0 94.5 -50t14.5 -117q-23 -102 -123 -182t-215 -111z" />
<glyph unicode="-" d="M520 694l19 82h483l-18 -82h-484z" />
<glyph unicode="." d="M499.5 108.5q12.5 57.5 61.5 98.5t106.5 41t89 -41t19.5 -98.5t-61 -97.5t-106.5 -40t-89.5 40t-19.5 97.5z" />
<glyph unicode="/" d="M264 -55l606 1585h95l-607 -1585h-94z" />
<glyph unicode="0" d="M317 248q-23 166 50 489q68 322 149 473q160 293 418 293q127 0 200.5 -75.5t90.5 -200.5q23 -160 -47 -490q-70 -322 -152 -473q-70 -133 -178.5 -213t-239.5 -80q-127 0 -201 76t-90 201zM412 313q6 -113 57 -187.5t156 -74.5q111 0 197.5 83t142.5 204q66 145 116 399 q59 270 49 422q-6 113 -57 188.5t-155 75.5q-111 0 -198 -83t-142 -203q-61 -141 -115 -400q-61 -277 -51 -424z" />
<glyph unicode="1" d="M291 0l18 82h281l278 1315l-315 -92l20 90l418 125l-305 -1438h272l-18 -82h-649z" />
<glyph unicode="2" d="M225 0q51 244 146.5 377t365.5 334q207 152 279 225q115 117 139 229q25 117 -28.5 186.5t-170.5 69.5q-133 0 -229 -89t-135 -226h-96q53 178 178 287.5t301 109.5q160 0 233.5 -92t40.5 -252q-14 -72 -54 -138.5t-96.5 -121.5t-113.5 -102l-125 -99q-25 -18 -37 -26 q-266 -199 -356 -312.5t-127 -277.5h688l-18 -82h-785z" />
<glyph unicode="3" d="M221 231l96 52q59 -223 283 -224q154 0 267.5 88.5t146.5 241.5q39 182 -53.5 274.5t-266.5 92.5l19 82q137 0 251.5 88t143.5 223q25 113 -41 192.5t-182 79.5q-98 0 -191.5 -56t-161.5 -146l-71 45q86 113 203.5 176t244.5 63q156 0 241 -108.5t52 -259.5 q-25 -111 -107.5 -197t-197.5 -133q131 -45 189.5 -149.5t27.5 -247.5q-39 -188 -187.5 -309.5t-338.5 -121.5q-141 0 -227.5 63.5t-139.5 190.5z" />
<glyph unicode="4" d="M227 395l15 72l766 1036h151l-217 -1026h209l-18 -82h-209l-84 -395h-97l84 395h-600zM350 477h496l203 959h-5z" />
<glyph unicode="5" d="M279 199l81 55q31 -86 100.5 -140.5t164.5 -54.5q133 0 242.5 112t142.5 269q20 111 10 184.5t-49 118.5t-81 63.5t-87 18.5q-166 0 -305 -168l-109 23l227 795h617l-16 -82h-533l-186 -635l4 -4q139 154 315 153q162 0 249 -121.5t42 -336.5q-43 -195 -183.5 -333.5 t-328.5 -138.5q-213 1 -317 222z" />
<glyph unicode="6" d="M315 310q-2 124 33 313q90 424 298 652t429 228q127 0 228 -76l-64 -81q-90 76 -184 75q-113 0 -220.5 -76.5t-183.5 -191.5t-127 -235.5t-65 -219.5l4 -4q174 227 395 228q172 0 238.5 -135.5t27.5 -315.5q-43 -205 -181 -349.5t-339 -144.5q-78 0 -137 31t-104.5 104.5 t-47.5 197.5zM416 432q-31 -145 18 -259t189 -114q160 0 264 121t141 291q33 152 -15 260.5t-192 108.5q-115 0 -240.5 -111t-164.5 -297z" />
<glyph unicode="7" d="M311 0l848 1393h-651l16 82h774l-880 -1475h-107z" />
<glyph unicode="8" d="M246 389q61 289 340 381q-88 41 -125 139.5t-12 206.5q39 176 173 281.5t312 105.5q180 0 267 -104.5t48 -282.5q-25 -111 -99.5 -208t-178.5 -138q238 -90 176 -381q-41 -193 -180.5 -302.5t-356.5 -109.5q-221 0 -312 111t-52 301zM342 389q-33 -156 46 -243t238.5 -87 t275.5 87t148.5 243t-46 247t-236.5 91t-275.5 -91t-150.5 -247zM541 1102q-29 -133 39.5 -213t203.5 -80q139 0 238.5 83t130.5 224q29 141 -34.5 223t-203.5 82q-145 0 -244 -84.5t-130 -234.5z" />
<glyph unicode="9" d="M238 47l63 82q84 -70 188 -70q111 0 218.5 76t183.5 189.5t127 234.5t65 221q-186 -227 -399 -227q-172 0 -239.5 135t-28.5 313q45 209 184 355.5t340 146.5q213 0 272 -227q41 -162 -18 -424q-68 -319 -215 -543q-94 -145 -228.5 -238.5t-281.5 -93.5q-137 0 -231 70z M512 1004q-33 -152 16.5 -260.5t192.5 -108.5q129 0 260 131q111 113 145 276q14 90 7 174t-63 144.5t-150 60.5q-160 0 -265.5 -123.5t-142.5 -293.5z" />
<glyph unicode=":" d="M497.5 108.5q12.5 57.5 61.5 98.5t106.5 41t89 -41t19.5 -98.5t-61 -97.5t-106.5 -40t-89.5 40t-19.5 97.5zM651.5 827.5q12.5 57.5 60.5 98.5t105 41t90 -41t20.5 -98.5t-61.5 -97.5t-106.5 -40t-89 40t-19 97.5z" />
<glyph unicode=";" d="M453 -227l18 86q131 37 186 121q-8 0 -20 -5q-4 0 -11.5 -1t-9.5 -1q-57 0 -82.5 35t-15.5 92q12 57 60.5 95t103.5 38q66 0 94.5 -50t14.5 -117q-23 -102 -123 -182t-215 -111zM674 827.5q12 57.5 60 98.5t105.5 41t90.5 -41t20.5 -98.5t-61.5 -97.5t-106.5 -40t-89 40 t-19.5 97.5z" />
<glyph unicode="&#x3c;" d="M344 737l776 738l51 -66l-696 -672l696 -671l-51 -66z" />
<glyph unicode="=" d="M213 555v90h1090v-90h-1090zM213 829v91h1090v-91h-1090z" />
<glyph unicode="&#x3e;" d="M344 66l696 671l-696 672l51 66l776 -738l-776 -737z" />
<glyph unicode="?" d="M504 108.5q12 57.5 61 98.5t106.5 41t89.5 -41t19.5 -98.5t-61.5 -97.5t-106.5 -40t-89 40t-19.5 97.5zM510 1190q45 147 154.5 230t257.5 83q162 0 233.5 -95t36.5 -257q-23 -111 -76 -173.5t-168 -139.5q-102 -70 -124.5 -106t-47.5 -148l-26 -125h-97l41 200 q10 61 41 109q37 57 189 156q78 53 117.5 104t56.5 129q25 119 -26.5 191.5t-168.5 72.5q-106 0 -185 -63.5t-106 -167.5h-102z" />
<glyph unicode="@" d="M129.5 318.5q-20.5 121.5 9.5 291.5q49 229 170 432t299 332t369 129q231 0 361 -171t71 -447q-16 -76 -51 -158t-87 -161t-127 -129t-157 -50q-63 0 -107 32t-46 89q-117 -127 -242 -127q-78 0 -114 52t-19 134q18 90 73.5 191.5t120.5 167.5q121 119 373 118h66 l-121 -319q-25 -66 -35 -114t-7 -74.5t15 -43t27.5 -20.5t36.5 -4q76 0 144.5 76t104 159.5t52.5 163.5q27 150 8 255.5t-77 171t-127 96t-142 30.5q-141 0 -270.5 -77.5t-219.5 -200.5t-152.5 -259t-90.5 -270q-29 -158 -12.5 -265t75.5 -172.5t132 -94.5t159 -29 q211 0 510 172l16 -92q-289 -162 -555 -162q-102 0 -189 36t-155.5 113t-89 198.5zM557 580q-8 -45 7.5 -81t53.5 -36q70 0 150 81t152 281l49 138q-129 -8 -211 -64q-61 -41 -123 -143t-78 -176z" />
<glyph unicode="A" d="M125 0l817 1534l168 -1534h-109l-36 449h-502l-232 -449h-106zM500 530h461l-74 742z" />
<glyph unicode="B" d="M244 0l313 1475h361q164 0 243 -98q56 -68 56 -168q0 -44 -11 -95q-49 -229 -307 -334q135 -41 193 -142q36 -65 36 -148q0 -48 -12 -101q-35 -164 -157.5 -276.5t-292.5 -112.5h-422zM358 82h310q106 0 213.5 78t138.5 225q8 40 8 77q0 93 -51 165q-72 100 -229 100 h-254zM512 809h150q184 0 300.5 83t147.5 228q9 43 9 80q0 75 -37 122q-54 71 -226 71h-219z" />
<glyph unicode="C" d="M309 392q2 89 11.5 165t27.5 160q170 786 639 786q135 0 213 -86q64 -71 64 -175q0 -22 -2 -46h-97q4 22 4 42q0 69 -44 119q-56 65 -154 64q-371 0 -518 -694q-40 -191 -41 -328q0 -345 256 -346q115 0 209 76t122 190h97q-49 -164 -170 -256t-285 -92q-94 0 -161.5 34 t-101.5 94.5t-52 131.5q-17 65 -17 144v17z" />
<glyph unicode="D" d="M252 0l313 1475h369q121 0 198.5 -58.5t108.5 -150.5q24 -72 24 -178q0 -144 -44 -351q-82 -395 -242 -573q-150 -164 -387 -164h-340zM367 82h182q141 0 237.5 37t169.5 151q90 137 162 467q46 227 47 362q0 73 -14 120q-29 106 -107.5 140t-216.5 34h-182z" />
<glyph unicode="E" d="M309 0l314 1475h720l-16 -82h-625l-127 -594h449l-18 -82h-449l-133 -635h639l-19 -82h-735z" />
<glyph unicode="F" d="M328 0l313 1475h756l-17 -82h-659l-125 -582h496l-17 -82h-495l-156 -729h-96z" />
<glyph unicode="G" d="M311 340q2 139 41 350q51 238 119 401.5t148.5 251t163.5 124t184 36.5q164 0 231 -99q52 -76 52 -193q0 -35 -5 -74h-102q11 44 10 82q0 65 -30 118q-48 84 -162 84q-82 0 -152 -32.5t-120 -95t-87 -126t-65.5 -153.5t-44 -149.5t-31.5 -139.5q-14 -61 -22.5 -109.5 t-17.5 -121.5q-8 -66 -8 -118v-11q1 -55 12 -118t36.5 -102t73 -65.5t112.5 -26.5q137 0 260 107.5t174 349.5l25 119h-354l18 82h451l-158 -740h-96l49 234h-4q-55 -106 -165 -170t-226 -64q-92 0 -157 33t-110 115q-43 78 -43 209v12z" />
<glyph unicode="H" d="M225 0l314 1475h96l-141 -668h583l142 668h96l-314 -1475h-96l154 725h-584l-153 -725h-97z" />
<glyph unicode="I" d="M360 0l19 82h205l278 1311h-205l17 82h506l-17 -82h-205l-278 -1311h205l-19 -82h-506z" />
<glyph unicode="J" d="M268 444l33 158h96l-43 -211q-15 -76 -15 -134q0 -77 27 -124q45 -80 180 -80h7q152 2 247 91t128 247l213 1002h-279l17 82h374l-215 -1008q-55 -264 -176 -380t-325 -116q-184 0 -253 111q-39 62 -39 169q0 83 23 193z" />
<glyph unicode="K" d="M287 0l313 1475h96l-143 -676q154 2 412 286q172 195 292 396l89 -54l-240 -297q-221 -274 -428 -380l471 -750h-133l-432 717h-49l-152 -717h-96z" />
<glyph unicode="L" d="M346 0l313 1475h97l-295 -1393h647l-18 -82h-744z" />
<glyph unicode="M" d="M172 0l313 1475h107l164 -811l508 811h106l-313 -1475h-96l272 1280h-4l-516 -819l-168 819l-6 -4l-271 -1276h-96z" />
<glyph unicode="N" d="M256 0l313 1475h140l233 -1264l4 4l268 1260h97l-316 -1489h-100l-254 1355l-4 -4l-285 -1337h-96z" />
<glyph unicode="O" d="M290 416q5 137 44 321q25 119 51.5 211t76.5 202t110.5 182.5t153.5 121.5t208 49q90 0 153.5 -30.5t99.5 -74.5t52 -119t18 -133q0 -10 1 -21q0 -53 -9 -129q-10 -91 -19 -136l-26 -123q-49 -227 -114.5 -382.5t-146.5 -236.5t-159.5 -114t-175.5 -33q-76 0 -132 18.5 t-103 70t-68 135.5q-16 67 -16 168q0 26 1 53zM390 399v-23q0 -122 30 -189q33 -73 83 -103.5t124 -30.5q160 0 277.5 153.5t197.5 530.5q43 199 48 337q1 19 1 37q0 111 -28 175q-32 74 -81 104.5t-124 30.5q-166 0 -285 -158.5t-197 -525.5q-43 -199 -46 -338z" />
<glyph unicode="P" d="M297 0l313 1475h332q111 0 184.5 -38t103.5 -99.5t38 -140.5q2 -21 2 -42q0 -59 -17 -121q-47 -213 -190 -323.5t-356 -110.5h-187l-127 -600h-96zM539 682h172q186 0 295.5 93t144.5 257q16 73 16 131q0 94 -42 146q-67 84 -193 84h-242z" />
<glyph unicode="Q" d="M293 284q-6 45 -6 97q0 148 47 356q86 406 237.5 586t362.5 180q321 0 321 -407q0 -151 -45 -359q-98 -475 -301 -649l121 -215h-121l-80 160q-104 -61 -221 -62q-137 0 -214.5 71t-100.5 242zM397 257q10 -67 36 -106.5t75 -68.5t119 -29q55 0 106 20.5t90 48.5t76 78 t61.5 89t49.5 104l37 101q12 35 28.5 99t19.5 80.5t13 63.5q43 199 47 337q0 15 1 30q0 117 -30 182q-33 74 -83 104.5t-125 30.5q-55 0 -103.5 -17.5t-86.5 -41t-74 -68.5t-59.5 -80.5t-48 -96t-37.5 -97.5t-30.5 -103.5t-23.5 -93l-19 -86.5q-14 -68 -21 -107.5 t-19 -119.5q-10 -73 -10 -124q0 -55 11 -129z" />
<glyph unicode="R" d="M295 0l313 1475h350q182 0 264 -112q55 -75 54 -183q0 -52 -12 -111q-31 -141 -131.5 -254t-241.5 -156l258 -659h-121l-231 637h-271l-135 -637h-96zM545 719h239q115 0 227.5 90t151.5 268q11 52 12 96q0 76 -33 132q-52 88 -200 88h-254z" />
<glyph unicode="S" d="M244 188l86 60q41 -88 119.5 -141.5t181.5 -53.5q131 0 241.5 86t137.5 217q12 49 12 89q0 15 -2 29q-6 50 -55.5 103.5t-167.5 133.5l-121 82q-111 74 -163 155q-35 54 -35 127q0 37 9 78q35 162 163 256t292 94q193 0 340 -166l-74 -71q-143 156 -288 155 q-115 0 -209.5 -71.5t-118.5 -186.5q-6 -30 -7 -58q0 -53 23 -96q35 -67 150 -147l106 -74q115 -78 169 -130t79 -120q14 -39 14 -85q0 -34 -8 -72q-39 -188 -177 -299t-329 -111q-247 0 -368 217z" />
<glyph unicode="T" d="M438 1393l17 82h946l-17 -82h-426l-296 -1393h-97l297 1393h-424z" />
<glyph unicode="U" d="M301 356l238 1119h96l-223 -1047q-16 -78 -17 -139q0 -93 38 -147q62 -89 194 -89q133 0 228 85t132 257l230 1080h96l-234 -1096q-43 -199 -184 -303.5t-287 -104.5q-156 0 -249 113q-68 82 -67 189q0 40 9 83z" />
<glyph unicode="V" d="M516 1475h113l-2 -1407h4l586 1407h110l-637 -1489h-155z" />
<glyph unicode="W" d="M262 -14l201 1489h112l-194 -1317h4l428 819l82 -819h4l367 1317h112l-430 -1489h-129l-59 741l-369 -741h-129z" />
<glyph unicode="X" d="M213 0l514 745l-190 730h114l142 -637l411 637h115l-498 -732l195 -743h-115l-149 653l-424 -653h-115z" />
<glyph unicode="Y" d="M471 1475h109l153 -738l467 738h109l-551 -850l-133 -625h-97l134 625z" />
<glyph unicode="Z" d="M231 0l19 82l919 1311h-618l16 82h727l-16 -82l-913 -1311h684l-19 -82h-799z" />
<glyph unicode="[" d="M330 -180l362 1700h549l-18 -82h-453l-326 -1536h453l-18 -82h-549z" />
<glyph unicode="\" d="M264 1530h94l607 -1585h-95z" />
<glyph unicode="]" d="M276 -180l19 82h453l325 1536h-452l18 82h549l-363 -1700h-549z" />
<glyph unicode="^" d="M369 731l336 662h106l330 -662h-103l-280 563l-287 -563h-102z" />
<glyph unicode="_" d="M0 -154h1229v-102h-1229v102z" />
<glyph unicode="`" d="M670 1417l94 86l268 -266l-57 -61z" />
<glyph unicode="a" d="M295 322q35 164 145.5 274.5t261.5 110.5q119 0 250 -72q32 130 33 214q0 49 -11 83q-30 92 -161 92q-100 0 -274 -72l-4 88q182 66 303 66q150 0 211 -100q36 -59 36 -146q0 -61 -18 -135l-106 -442q-17 -69 -17 -158q0 -63 8 -135l-90 -13q-8 53 -8 103q0 42 6 82 q-82 -92 -159.5 -138.5t-176.5 -46.5q-143 0 -201 100q-38 65 -39 150q0 45 11 95zM391 313q-8 -37 -8 -71q0 -57 24 -106q38 -77 134 -77q92 0 168.5 58.5t160.5 161.5l60 280q-113 66 -221 66q-127 0 -209 -90.5t-109 -221.5z" />
<glyph unicode="b" d="M207 -10q84 162 133 391l242 1139h96l-109 -506q133 92 287 92q49 0 98.5 -16.5t101.5 -55.5t82.5 -102.5t43.5 -158.5q4 -27 3 -57q0 -75 -22 -167q-33 -150 -96 -265.5t-141 -179t-155 -95.5t-148 -32q-94 0 -161 47.5t-91 131.5l-76 -179zM414 276q25 -102 75 -159.5 t148 -57.5q39 0 84 13.5t97 48.5t97.5 88t86 139t63.5 195q21 88 21 156q0 25 -3 46q-10 84 -34.5 138.5t-69.5 85t-85 43t-81 12.5q-121 0 -264 -106z" />
<glyph unicode="c" d="M319 306q-4 27 -3 57q0 75 22 167q33 158 98.5 275t145.5 179.5t160.5 92t162.5 29.5q227 0 326 -219l-98 -58q-57 195 -246 195q-57 0 -116.5 -20.5t-125 -69.5t-121 -148.5t-86.5 -238.5q-18 -104 -18 -184q0 -26 2 -50q8 -94 52 -150.5t97.5 -80t116.5 -23.5 q154 0 332 170l51 -69q-209 -182 -397 -183q-61 0 -116.5 15.5t-111 54.5t-85.5 101.5t-42 157.5z" />
<glyph unicode="d" d="M279 282q-4 33 -4 70q0 87 20 197q33 154 101.5 268.5t150.5 174t155.5 87t137.5 27.5q150 0 245 -92l109 506h96l-241 -1139q-38 -181 -38 -316q0 -39 3 -75l-92 -13l-2 179q-129 -178 -326 -179q-74 0 -137.5 30t-114.5 97.5t-63 177.5zM373 308q8 -93 51 -148.5 t90 -78t98 -22.5q188 0 318 217l135 642q-98 106 -219 106q-53 0 -112.5 -20.5t-128 -69.5t-127 -150.5t-89.5 -240.5q-18 -106 -18 -185q0 -27 2 -50z" />
<glyph unicode="e" d="M293 334q-1 19 -1 38q0 82 21 165q49 233 194.5 401t366.5 168q162 0 250 -136q51 -79 52 -216q0 -99 -27 -228h-741q-15 -91 -16 -165q0 -302 257 -302q166 0 365 107l22 -90q-244 -98 -407 -99q-115 0 -192 49.5t-107.5 128.5t-36.5 179zM424 608h645q17 63 17 123 q0 85 -34 162q-58 131 -208 131t-270.5 -131t-149.5 -285z" />
<glyph unicode="f" d="M416 928l18 82h279l26 123q43 195 151.5 282.5t239.5 87.5q109 0 252 -67l-22 -103q-23 10 -61.5 31.5t-59 31t-51.5 17.5t-64 8q-109 0 -180.5 -56t-93.5 -165l-41 -190h358l-18 -82h-358l-197 -928h-96l196 928h-278z" />
<glyph unicode="g" d="M231 -201l80 60q35 -57 100.5 -90t141.5 -33q109 0 210 87t142 273l29 133q-68 -59 -161 -96t-173 -37q-92 0 -157.5 44t-93 114t-36.5 156q-2 23 -2 45q0 63 17 125q29 135 89 248.5t170.5 195.5t250.5 82q82 0 140 -31t128 -94l55 125h99q-92 -190 -170 -571l-95 -451 q-47 -217 -188 -323.5t-291 -106.5q-82 0 -160 42t-125 103zM417 388q9 -81 50 -128t80 -64.5t78 -17.5q84 0 178 47t151 119l111 522q-35 70 -100.5 114t-149.5 44q-152 0 -252 -130t-135 -296q-14 -89 -14 -155q0 -30 3 -55z" />
<glyph unicode="h" d="M266 0l324 1520h96l-143 -672h4q76 111 187.5 184.5t228.5 73.5q94 0 159 -79q43 -51 43 -137q0 -46 -12 -102l-168 -788h-96l145 680q21 99 21 169q0 175 -127 175q-137 0 -273.5 -145.5t-175.5 -333.5l-117 -545h-96z" />
<glyph unicode="i" d="M489 1001l17 82h412l-230 -1083h-96l213 1001h-316zM827 1397q8 45 46 75.5t83 30.5t70 -30q18 -23 18 -55q0 -10 -2 -21q-8 -45 -47 -76t-84 -31t-69 31q-17 22 -18 50q0 13 3 26z" />
<glyph unicode="j" d="M188 57h97q-17 -76 -17 -134q0 -187 170 -187q104 0 182 67.5t99 167.5l219 1030h-326l17 82h422l-230 -1081q-31 -147 -145.5 -247.5t-253.5 -100.5q-166 0 -218 115q-31 67 -31 154q0 62 15 134zM950 1397q8 45 46 75.5t83 30.5t70 -30q18 -23 18 -55q0 -10 -2 -21 q-8 -45 -47 -76t-84 -31t-69 31q-17 22 -18 50q0 13 3 26z" />
<glyph unicode="k" d="M311 0l324 1520h96l-207 -971q352 276 580 534h125l-124 -119l-114 -111l-87 -82l-105 -94l-107 -87l400 -590h-129l-340 535l-123 -101l-92 -434h-97z" />
<glyph unicode="l" d="M563 1438l19 82h415l-323 -1520h-96l305 1438h-320z" />
<glyph unicode="m" d="M158 0l159 756q37 171 38 320q0 15 -1 30h99l-4 -141q131 141 284 141q115 0 139 -131q131 131 252 131q102 0 145 -62q27 -40 27 -98q0 -31 -8 -67l-186 -879h-96l186 874q6 29 6 53q0 99 -104 99q-121 0 -228 -139l-188 -887h-96l176 831q8 41 10 67t-1 58.5t-23.5 50 t-59.5 17.5q-66 0 -134.5 -46t-111.5 -112l-184 -866h-96z" />
<glyph unicode="n" d="M248 0l114 543q74 348 76 553h90l-28 -312h4q59 125 194.5 223.5t259.5 98.5q92 0 141.5 -50t51.5 -124v-19q0 -66 -12 -141l-164 -772h-96l153 727l15.5 80t7.5 77v14q0 38 -9 59q-11 26 -40 46.5t-78 20.5q-61 0 -130 -31.5t-139.5 -97.5t-130 -182.5t-90.5 -266.5 l-94 -446h-96z" />
<glyph unicode="o" d="M310 268q-2 26 -2 56q0 93 22 219q33 152 93 265.5t135 176t151.5 92t154.5 29.5q74 0 135.5 -25.5t114.5 -90t64 -173.5q3 -29 2 -61q0 -91 -21 -213q-33 -158 -95.5 -273.5t-139 -176t-151.5 -88.5t-148.5 -28t-136 26t-116 91t-62.5 174zM404 376v-24q0 -65 14 -129 q16 -76 72.5 -120t150.5 -44t170 44t125 120t78.5 153t48 167t21.5 166q0 12 1 24q0 64 -14 127q-16 76 -73.5 120t-151.5 44t-170 -44t-124 -120t-78 -151.5t-48.5 -165.5t-21.5 -167z" />
<glyph unicode="p" d="M166 -434l242 1139q38 171 38 310q0 41 -4 79l93 12v-178h4q123 178 323 178q72 0 135.5 -29.5t115.5 -96.5t65 -176q4 -31 3 -67q0 -89 -22 -202q-27 -125 -78 -224.5t-110.5 -160t-127 -101.5t-122.5 -56.5t-105 -15.5q-152 0 -247 93l-107 -504h-96zM389 166 q98 -106 219 -107q41 0 87 11.5t102.5 45.5t105.5 85t93 139t69 201q18 106 18 185q0 26 -2 49q-8 93 -51 148.5t-90 78t-98 22.5q-170 0 -316 -217z" />
<glyph unicode="q" d="M273 310q-4 29 -4 61q0 74 22 164q63 291 222 431t321 140q94 0 159.5 -47t87.5 -131h4l76 178l88 -12q-78 -147 -131 -389l-241 -1139h-97l107 504q-137 -92 -287 -93q-49 0 -98 16.5t-101.5 55.5t-83.5 102.5t-44 158.5zM376 299q11 -94 62 -147.5t100.5 -73 t102.5 -19.5q119 0 266 107l137 641q-27 102 -78 159.5t-149 57.5q-51 0 -108.5 -24.5t-121 -76t-116.5 -150.5t-82 -232q-17 -101 -17 -178q0 -34 4 -64z" />
<glyph unicode="r" d="M346 0l160 750l35 346h92l-29 -303l4 -5q209 317 434 318q84 0 128 -52q43 -51 43 -122q0 -69 -13 -154h-96q10 51 13 83q1 14 2 30q0 21 -3 46q-4 44 -28.5 65.5t-71.5 21.5q-45 0 -109.5 -35t-137.5 -101.5t-137.5 -184t-94.5 -263.5l-95 -440h-96z" />
<glyph unicode="s" d="M252 152l70 77q55 -72 143 -121t178 -49q96 0 172 52.5t96 146.5q6 27 6.5 50.5t-3 42t-13.5 35.5t-18.5 29.5t-27.5 25.5l-31 22q-11 8 -35.5 19.5t-37 16.5t-38.5 17q-70 29 -108 49.5t-86 58.5t-63 91q-8 28 -8 59q0 29 7 62q25 113 137.5 191.5t236.5 78.5 q166 0 301 -115l-57 -80q-135 113 -268 113q-84 0 -161 -56.5t-95 -140.5q-4 -19 -4 -36q0 -24 8 -46q14 -37 50 -64.5t65.5 -42.5t72.5 -34l52 -21q16 -7 47.5 -22.5t47.5 -25.5l41 -29q26 -18 37 -35l25 -39q14 -23 19 -47q5 -31 5 -62q0 -28 -7 -59q-27 -129 -140.5 -208 t-244.5 -79q-98 0 -204 52.5t-167 122.5z" />
<glyph unicode="t" d="M399 1001l17 82h243l76 349h96l-75 -349h397l-16 -82h-398l-157 -739q-9 -41 -9 -73q0 -130 138 -130q166 0 293 193l88 -23q-178 -252 -402 -252q-209 0 -208 210q0 58 16 132l145 682h-244z" />
<glyph unicode="u" d="M311 158v19q0 67 13 142l161 764h97l-152 -718q-19 -88 -19 -151q0 -47 11 -79q25 -76 110 -76q139 0 286 151.5t206 434.5l92 438h96l-112 -534q-72 -338 -74 -549h-90l25 307h-5q-59 -125 -194 -227.5t-258 -102.5q-92 0 -141.5 52.5t-51.5 128.5z" />
<glyph unicode="v" d="M442 1083h103l94 -952l498 952h102l-573 -1097h-113z" />
<glyph unicode="w" d="M293 -14l39 1097h106l-49 -936h4l332 658h104l50 -658h4l348 936h104l-424 -1097h-104l-57 700l-353 -700h-104z" />
<glyph unicode="x" d="M141 0l543 582l-231 501h112l189 -426l362 426h107l-432 -497l296 -586h-129l-235 516l-453 -516h-129z" />
<glyph unicode="y" d="M25 -139l90 43q23 -168 133 -168q37 0 71.5 18.5t67.5 54t52.5 61.5t45.5 69l121 186l-149 958h106l117 -831l487 831h111l-623 -1030q-45 -76 -62.5 -102.5t-69.5 -98t-89 -104.5t-93 -63.5t-112 -30.5q-88 0 -141 59.5t-63 147.5z" />
<glyph unicode="z" d="M209 0l18 82l867 919h-580l16 82h695l-17 -82l-860 -919h690l-18 -82h-811z" />
<glyph unicode="{" d="M524 666l2 4q109 27 150 77t63 160l70 330q33 158 111.5 218.5t244.5 64.5l2 -4q-121 -18 -176 -79t-82 -184l-69 -329q-25 -115 -69 -172.5t-157 -81.5l-2 -4q72 -18 102.5 -53t29.5 -87.5t-15 -122.5l-67 -319q-25 -121 5.5 -184.5t141.5 -75.5l-6 -4q-170 2 -218 65.5 t-14 231.5l66 309q29 100 7 156.5t-120 83.5z" />
<glyph unicode="|" d="M713 -590v2212h90v-2212h-90z" />
<glyph unicode="}" d="M348 -176q121 18 176.5 78.5t81.5 183.5l70 330q25 115 70 172t157 82v4q-72 18 -102.5 53t-29.5 87t15 122l68 319q25 121 -6 184.5t-141 76.5l6 4q170 -2 218 -65.5t13 -231.5l-65 -310q-29 -100 -7.5 -156.5t119.5 -82.5v-4q-111 -27 -151.5 -77t-63.5 -161l-69 -330 q-33 -158 -112 -218t-245 -64z" />
<glyph unicode="~" d="M205 618q139 248 297 248q90 0 269 -76.5t230 -76.5q74 0 140.5 57t103.5 133l66 -47q-51 -96 -132 -164.5t-175 -68.5q-61 0 -251 76.5t-241 76.5q-55 0 -103.5 -32.5t-71 -62.5t-58.5 -93q-6 -10 -11 -17z" />
<glyph unicode="&#xa0;" />
<glyph unicode="&#xa1;" d="M543 0l241 1010h82l-180 -1010h-143zM762 1364q10 57 59 98t106.5 41t89.5 -41t21 -98q-12 -57 -62 -97t-107.5 -40t-88 40t-18.5 97z" />
<glyph unicode="&#xa2;" d="M385 752q109 510 512 573l41 195h96l-41 -195q188 -14 289 -217l-104 -61q-47 174 -203 196l-205 -960q131 16 297 168l51 -70q-190 -158 -364 -180l-62 -283h-96l61 283q-193 31 -255 182.5t-17 368.5zM485 768q-92 -418 191 -483l203 956q-306 -57 -394 -473z" />
<glyph unicode="&#xa3;" d="M305 55q139 174 192.5 259t65.5 151q25 113 10 326h-235l18 81h213q-18 172 4 285q31 150 158 248t275 98q121 0 209 -59.5t112 -165.5l-100 -31q-23 82 -81.5 128t-146.5 46q-115 0 -210 -74.5t-121 -203.5q-18 -80 -2 -271h409l-18 -81h-385q12 -223 -8 -312 q-14 -70 -56.5 -144.5t-79 -121.5t-102.5 -121l2 -4q131 55 209 55q92 0 158 -30q90 -41 114 -41q61 0 172 80l39 -64q-111 -98 -217 -98q-61 0 -143 35q-86 37 -150 36q-106 0 -264 -84z" />
<glyph unicode="&#xa4;" d="M158 219l223 219q-102 139 -102 299t102 299l-223 219l67 66l221 -219q131 106 303.5 106t303.5 -106l221 219l67 -66l-223 -219q102 -139 102.5 -298.5t-102.5 -299.5l223 -219l-67 -65l-221 219q-131 -106 -303 -106.5t-304 106.5l-221 -219zM358 737 q0 -166 113 -278.5t278.5 -112.5t278.5 112.5t113 278.5t-113 279.5t-278.5 113.5t-278.5 -113.5t-113 -279.5z" />
<glyph unicode="&#xa5;" d="M385 479l16 82h246l15 64l-191 850h115l149 -738l459 738h115l-551 -850l-15 -64h248l-16 -82h-248l-102 -479h-97l103 479h-246z" />
<glyph unicode="&#xa6;" d="M713 358h90v-716h-90v716zM713 666v716h90v-716h-90z" />
<glyph unicode="&#xa7;" d="M350 217h94q-31 -111 12.5 -174t155.5 -63q84 0 153 44t87 126q4 23 4 42t-3 34.5t-12 32.5l-16 29q-6 11 -21 26l-24 24q-8 8 -26.5 24.5t-26.5 22.5l-100 94q-12 12 -37 32.5t-40 35.5l-40 39q-25 25 -39 42t-32.5 44.5t-22.5 48t-11.5 51.5t3.5 55q33 154 206 230 q-61 78 -39 178q27 127 123.5 197.5t225.5 70.5q150 0 222.5 -83t31.5 -236h-97q29 113 -13 175t-153 62q-86 0 -153.5 -44t-85.5 -126q-4 -23 -4 -43t2 -34.5t12 -33t14.5 -27.5t21.5 -27l22 -22q5 -5 27 -24.5t26 -23.5l104 -94q117 -102 143 -136q94 -111 74 -213 q-33 -152 -207 -229q61 -78 39 -178q-27 -127 -124 -197.5t-224 -70.5q-152 0 -223.5 82.5t-28.5 236.5zM506 842q-14 -76 47 -150l317 -299q55 18 95.5 63.5t52.5 102.5q16 76 -45 150l-316 299q-57 -18 -98 -63.5t-53 -102.5z" />
<glyph unicode="&#xa8;" d="M596 1335q8 47 49 81t88 34t75 -34t17.5 -81t-51.5 -80.5t-88 -33.5t-73.5 33.5t-16.5 80.5zM971 1335q8 47 49 81t88 34t74.5 -34t17.5 -81t-51 -80.5t-88 -33.5t-73.5 33.5t-16.5 80.5z" />
<glyph unicode="&#xa9;" d="M158 739q68 317 293 540.5t479 223.5t383 -223t61 -541q-68 -319 -292 -543.5t-478 -224.5t-384 224.5t-62 543.5zM240 739q-59 -281 52 -483.5t330.5 -202.5t415 203t254.5 483q59 279 -51.5 480.5t-327.5 201.5q-219 0 -416.5 -201.5t-256.5 -480.5zM457 745 q41 193 158.5 317t269.5 124q111 0 171 -78t48 -211h-82q6 90 -37 148.5t-115 58.5q-117 0 -208 -103.5t-121 -252.5q-31 -143 17 -254t161 -111q72 0 141.5 62.5t97.5 154.5h82q-39 -133 -135 -216t-205 -83q-150 0 -217 128t-26 316z" />
<glyph unicode="&#xaa;" d="M498 645l14 70h485l-14 -70h-485zM584 1030q23 106 94.5 173t177.5 67q66 0 139 -25q41 188 -80 189q-74 0 -192 -56l4 92q154 33 205 33q88 0 130 -63.5t13 -190.5l-53 -245q-8 -33 -9 -57.5t0 -58.5t1 -59l-76 -10l-2 92q-102 -90 -201 -90q-88 0 -128.5 59.5 t-22.5 149.5zM666 1028q-12 -55 9 -96t75 -41q84 0 192 123l33 153q-82 33 -129 33q-72 0 -119 -49t-61 -123z" />
<glyph unicode="&#xab;" d="M223 729l639 510l45 -61l-563 -449l373 -448l-74 -66zM729 729l639 510l45 -61l-563 -449l373 -448l-74 -66z" />
<glyph unicode="&#xac;" d="M213 829v91h1090v-566h-91v475h-999z" />
<glyph unicode="&#xad;" d="M520 694l19 82h483l-18 -82h-484z" />
<glyph unicode="&#xae;" d="M158 739q68 317 295 540.5t483 223.5q254 0 386 -223t64 -541q-68 -319 -294 -543.5t-482 -224.5t-388 224.5t-64 543.5zM240 739q-59 -283 53.5 -484.5t335.5 -201.5q221 0 418.5 202t257.5 484q59 281 -52.5 481.5t-332.5 200.5q-223 0 -422 -200.5t-258 -481.5z M455 309l182 856h297q244 0 192 -227q-47 -227 -262 -233l123 -396h-100l-111 396h-155l-84 -396h-82zM639 786h207q166 0 201 156q2 33 4 56.5t-11.5 39t-24.5 24.5t-35 14t-40 6t-43 1h-197z" />
<glyph unicode="&#xaf;" d="M594 1292l18 82h590l-18 -82h-590z" />
<glyph unicode="&#xb0;" d="M362 1124.5q0 163.5 116 279.5t280 116t279.5 -116t115.5 -279.5t-115.5 -279.5t-279.5 -116t-280 116t-116 279.5zM449 1124q0 -127 91 -218t218 -91t218 91t91 218t-91 218.5t-218 91.5t-218 -91.5t-91 -218.5z" />
<glyph unicode="&#xb1;" d="M213 96v90h1090v-90h-1090zM213 788v91h500v499h90v-499h500v-91h-500v-499h-90v499h-500z" />
<glyph unicode="&#xb2;" d="M537 692q25 125 73.5 201t173.5 166q4 4 44 31.5t54.5 39l48.5 40t50 47t33.5 45t21.5 51.5q12 57 -13.5 91t-82.5 34q-68 0 -115 -47.5t-65 -118.5h-82q29 104 101.5 167.5t176.5 63.5q94 0 138.5 -51t23.5 -143q-6 -29 -24.5 -59.5t-32.5 -51t-52 -53.5l-51 -43 q-12 -10 -60 -45t-52 -37q-66 -49 -97.5 -77t-65.5 -77t-50 -108h371l-15 -66h-452z" />
<glyph unicode="&#xb3;" d="M532 825l80 43q16 -63 51 -95t101 -32q72 0 128 45t71 117q39 184 -175 184l15 66q70 -4 132 38t77 114q14 57 -21 95t-94 38q-49 0 -98 -34t-80 -81l-62 39q109 141 265 141q88 0 139 -59.5t33 -147.5q-23 -109 -148 -172q131 -61 101 -209q-23 -106 -107 -172.5 t-190 -66.5q-86 0 -135.5 36.5t-82.5 112.5z" />
<glyph unicode="&#xb4;" d="M676 1237l383 266l57 -86l-407 -241z" />
<glyph unicode="&#xb5;" d="M160 -475l325 1536h97l-133 -631q-41 -195 18 -283t154 -88q100 0 201.5 93.5t148.5 310.5l127 598h96l-225 -1061h-97l41 190h-4q-55 -88 -133 -150.5t-162 -62.5q-88 0 -144 57.5t-73 143.5h-4l-137 -653h-96z" />
<glyph unicode="&#xb6;" d="M346 1075q86 399 576 400h503l-16 -82h-94l-346 -1624h-97l347 1624h-256l-347 -1624h-96l195 913q-190 -14 -300 96.5t-69 296.5z" />
<glyph unicode="&#xb7;" d="M512 737q0 43 29.5 73t72.5 30t73 -30t30 -73t-30 -72.5t-73 -29.5t-72.5 29.5t-29.5 72.5z" />
<glyph unicode="&#xb8;" d="M375 -352l39 67q90 -37 139 -37q35 0 75 19.5t46 52.5q8 39 -26 53.5t-79 14.5q-20 0 -44.5 -2t-28.5 -2l118 213h74l-78 -140q80 -2 128 -34.5t32 -106.5q-14 -68 -78.5 -108.5t-134.5 -40.5q-71 0 -182 51z" />
<glyph unicode="&#xb9;" d="M569 670l13 65h151l144 670l-170 -49l14 71l258 76l-164 -768h148l-13 -65h-381z" />
<glyph unicode="&#xba;" d="M508 645l14 70h488l-15 -70h-487zM594 1161q29 143 116 242.5t224 99.5q131 0 180 -95t16 -247q-31 -147 -119.5 -243.5t-222.5 -96.5q-129 0 -178 92t-16 248zM676 1161q-53 -270 127 -270q102 0 162.5 80t83.5 190q57 272 -129.5 272t-243.5 -272z" />
<glyph unicode="&#xbb;" d="M125 281l565 448l-375 449l74 61l422 -510l-641 -514zM633 281l565 448l-375 449l74 61l422 -510l-641 -514z" />
<glyph unicode="&#xbc;" d="M260 670l12 65h152l143 670l-170 -49l15 71l258 76l-164 -768h147l-12 -65h-381zM287 0l993 1503h82l-993 -1503h-82zM696 207l13 51l415 553h107l-115 -539h117l-14 -65h-117l-43 -207h-82l43 207h-324zM803 272h231l92 435h-4z" />
<glyph unicode="&#xbd;" d="M254 0l995 1503h84l-997 -1503h-82zM260 670l12 65h152l143 670l-170 -49l15 71l258 76l-164 -768h147l-12 -65h-381zM696 0q25 125 74 200.5t174 166.5q4 4 44 31.5t54.5 39l48 40t50 47t34 45t21.5 51.5q12 57 -13.5 90.5t-82.5 33.5q-68 0 -115 -47t-65 -118h-82 q29 104 101.5 167.5t176.5 63.5q94 0 138 -51t24 -144q-6 -29 -24.5 -59.5t-33 -51t-52.5 -52.5l-50 -43q-12 -10 -60 -45t-52 -37q-66 -49 -97.5 -77t-65.5 -77t-50 -108h370l-14 -66h-453z" />
<glyph unicode="&#xbe;" d="M225 825l80 43q16 -63 51 -95t101 -32q72 0 128 45t70 117q39 184 -174 184l15 66q70 -4 132 38t77 114q14 57 -21 95t-94 38q-49 0 -98.5 -34t-79.5 -81l-62 39q109 141 264 141q88 0 139.5 -59.5t32.5 -147.5q-23 -109 -147 -172q131 -61 100 -209 q-23 -106 -106.5 -172.5t-190.5 -66.5q-86 0 -135 36.5t-82 112.5zM287 0l993 1503h82l-993 -1503h-82zM696 207l13 51l415 553h107l-115 -539h117l-14 -65h-117l-43 -207h-82l43 207h-324zM803 272h231l92 435h-4z" />
<glyph unicode="&#xbf;" d="M352 324q23 111 76 173t168 140q102 70 124.5 105.5t47.5 148.5l27 125h96l-41 -201q-10 -61 -41 -108q-37 -57 -188 -156q-78 -53 -118 -104.5t-57 -129.5q-25 -119 27.5 -191.5t169.5 -72.5q106 0 184 63.5t105 168.5h102q-45 -147 -154.5 -230.5t-256.5 -83.5 q-162 0 -234 95.5t-37 257.5zM762 1364q10 57 59 98t106.5 41t89.5 -41t21 -98q-12 -57 -62 -97t-107.5 -40t-88 40t-18.5 97z" />
<glyph unicode="&#xc0;" d="M125 0l817 1534l168 -1534h-109l-36 449h-502l-232 -449h-106zM500 530h461l-74 742zM731 1808l94 86l269 -266l-58 -61z" />
<glyph unicode="&#xc1;" d="M125 0l817 1534l168 -1534h-109l-36 449h-502l-232 -449h-106zM500 530h461l-74 742zM758 1628l383 266l57 -86l-407 -241z" />
<glyph unicode="&#xc2;" d="M125 0l817 1534l168 -1534h-109l-36 449h-502l-232 -449h-106zM500 530h461l-74 742zM621 1610l397 291l270 -291l-57 -51l-242 215l-332 -215z" />
<glyph unicode="&#xc3;" d="M125 0l817 1534l168 -1534h-109l-36 449h-502l-232 -449h-106zM500 530h461l-74 742zM553 1638q127 193 268 193q16 0 31.5 -3t27 -7t26.5 -13l23 -12q7 -4 23 -15l23 -16q96 -68 137 -67q88 0 156 110l69 -30q-43 -68 -107.5 -114t-134 -46t-157.5 65q-4 2 -15.5 11.5 t-15.5 12.5t-15 10t-18 10l-16 9q-10 5 -19.5 7t-20.5 4t-21 2q-88 0 -174 -137z" />
<glyph unicode="&#xc4;" d="M125 0l817 1534l168 -1534h-109l-36 449h-502l-232 -449h-106zM500 530h461l-74 742zM678 1726q8 47 49 81t88 34t75 -33.5t17.5 -81t-51.5 -81t-88 -33.5t-73.5 33.5t-16.5 80.5zM1053 1726q8 47 49 81t88 34t74.5 -33.5t17.5 -81t-51 -81t-88 -33.5t-73.5 33.5 t-16.5 80.5z" />
<glyph unicode="&#xc5;" d="M125 0l817 1534l168 -1534h-109l-36 449h-502l-232 -449h-106zM500 530h461l-74 742zM802.5 1708q14.5 70 74 119t129 49t108.5 -49t25 -119q-16 -70 -75.5 -119t-129.5 -49t-108 49t-23.5 119zM876.5 1708q-8.5 -39 13 -66.5t60.5 -27.5t73 27.5t42 66.5t-13.5 66.5 t-60.5 27.5t-72.5 -27.5t-42 -66.5z" />
<glyph unicode="&#xc6;" d="M66 0l716 1475h637l-16 -82h-426l-125 -588h297l-19 -82h-296l-136 -641h443l-19 -82h-538l96 455h-297l-213 -455h-104zM424 537h274l183 856h-54z" />
<glyph unicode="&#xc7;" d="M311 344q-4 100 6.5 188.5t30.5 184.5q170 786 639 786q135 0 213 -86t62 -221h-97q16 96 -40 160.5t-154 64.5q-371 0 -518 -694q-141 -674 215 -674q115 0 209 76t122 190h97q-47 -158 -164 -251t-275 -95l-47 -86q80 -2 128 -34.5t32 -106.5q-14 -68 -78.5 -108.5 t-134.5 -40.5q-72 0 -182 51l39 67q90 -37 139 -37q35 0 75 19.5t46 52.5q8 39 -26 53.5t-79 14.5q-20 0 -44.5 -2t-28.5 -2l90 161q-94 10 -156.5 65.5t-88.5 129.5t-30 174z" />
<glyph unicode="&#xc8;" d="M309 0l314 1475h720l-16 -82h-625l-127 -594h449l-18 -82h-449l-133 -635h639l-19 -82h-735zM721 1808l94 86l268 -266l-57 -61z" />
<glyph unicode="&#xc9;" d="M309 0l314 1475h720l-16 -82h-625l-127 -594h449l-18 -82h-449l-133 -635h639l-19 -82h-735zM758 1628l383 266l57 -86l-407 -241z" />
<glyph unicode="&#xca;" d="M309 0l314 1475h720l-16 -82h-625l-127 -594h449l-18 -82h-449l-133 -635h639l-19 -82h-735zM631 1610l397 291l270 -291l-57 -51l-242 215l-331 -215z" />
<glyph unicode="&#xcb;" d="M309 0l314 1475h720l-16 -82h-625l-127 -594h449l-18 -82h-449l-133 -635h639l-19 -82h-735zM709 1726q8 47 49 81t88 34t74.5 -33.5t17.5 -81t-51 -81t-88 -33.5t-73.5 33.5t-16.5 80.5zM1083 1726q8 47 49.5 81t88.5 34t74.5 -33.5t17.5 -81t-51 -81t-88.5 -33.5 t-74 33.5t-16.5 80.5z" />
<glyph unicode="&#xcc;" d="M360 0l19 82h205l278 1311h-205l17 82h506l-17 -82h-205l-278 -1311h205l-19 -82h-506zM721 1808l94 86l268 -266l-57 -61z" />
<glyph unicode="&#xcd;" d="M360 0l19 82h205l278 1311h-205l17 82h506l-17 -82h-205l-278 -1311h205l-19 -82h-506zM758 1628l383 266l57 -86l-407 -241z" />
<glyph unicode="&#xce;" d="M360 0l19 82h205l278 1311h-205l17 82h506l-17 -82h-205l-278 -1311h205l-19 -82h-506zM600 1610l397 291l271 -291l-58 -51l-241 215l-332 -215z" />
<glyph unicode="&#xcf;" d="M360 0l19 82h205l278 1311h-205l17 82h506l-17 -82h-205l-278 -1311h205l-19 -82h-506zM668 1726q8 47 49 81t88 34t74.5 -33.5t17.5 -81t-51 -81t-88 -33.5t-73.5 33.5t-16.5 80.5zM1042 1726q8 47 49.5 81t88.5 34t74.5 -33.5t17.5 -81t-51 -81t-88.5 -33.5t-74 33.5 t-16.5 80.5z" />
<glyph unicode="&#xd0;" d="M201 725l18 82h203l143 668h369q121 0 198.5 -58.5t108.5 -150.5q57 -170 -20 -529q-82 -395 -242 -573q-150 -164 -387 -164h-340l156 725h-207zM367 82h182q141 0 237.5 37t169.5 151q90 137 162 467q72 350 33 482q-29 106 -107.5 140t-216.5 34h-182l-125 -586h314 l-19 -82h-311z" />
<glyph unicode="&#xd1;" d="M256 0l313 1475h140l233 -1264l4 4l268 1260h97l-316 -1489h-100l-254 1355l-4 -4l-285 -1337h-96zM543 1638q127 193 268 193q16 0 31.5 -3t27 -7t26.5 -13l23 -12q7 -4 23 -15l23 -16q96 -68 137 -67q88 0 155 110l70 -30q-43 -68 -107.5 -114t-134 -46t-157.5 65 q-4 2 -15.5 11.5t-15.5 12.5t-15.5 10t-17.5 10l-16 9q-10 5 -19.5 7t-20.5 4t-22 2q-88 0 -174 -137z" />
<glyph unicode="&#xd2;" d="M290 416q5 137 44 321q25 119 51.5 211t76.5 202t110.5 182.5t153.5 121.5t208 49q90 0 153.5 -30.5t99.5 -74.5t52 -119t18.5 -133.5t-8 -149.5t-19.5 -136l-26 -123q-49 -227 -114.5 -382.5t-146.5 -236.5t-159.5 -114t-175.5 -33q-76 0 -132 18.5t-103 70t-67.5 135.5 t-15.5 221zM390 399.5q-3 -139.5 30 -212t83 -103.5t124 -31q160 0 277.5 153.5t197.5 530.5q43 199 48 337t-26.5 212t-81 104.5t-124.5 30.5q-166 0 -285 -158.5t-197 -525.5q-43 -198 -46 -337.5zM721 1808l94 86l268 -266l-57 -61z" />
<glyph unicode="&#xd3;" d="M290 416q5 137 44 321q25 119 51.5 211t76.5 202t110.5 182.5t153.5 121.5t208 49q90 0 153.5 -30.5t99.5 -74.5t52 -119t18.5 -133.5t-8 -149.5t-19.5 -136l-26 -123q-49 -227 -114.5 -382.5t-146.5 -236.5t-159.5 -114t-175.5 -33q-76 0 -132 18.5t-103 70t-67.5 135.5 t-15.5 221zM390 399.5q-3 -139.5 30 -212t83 -103.5t124 -31q160 0 277.5 153.5t197.5 530.5q43 199 48 337t-26.5 212t-81 104.5t-124.5 30.5q-166 0 -285 -158.5t-197 -525.5q-43 -198 -46 -337.5zM748 1628l382 266l58 -86l-408 -241z" />
<glyph unicode="&#xd4;" d="M290 416q5 137 44 321q25 119 51.5 211t76.5 202t110.5 182.5t153.5 121.5t208 49q90 0 153.5 -30.5t99.5 -74.5t52 -119t18.5 -133.5t-8 -149.5t-19.5 -136l-26 -123q-49 -227 -114.5 -382.5t-146.5 -236.5t-159.5 -114t-175.5 -33q-76 0 -132 18.5t-103 70t-67.5 135.5 t-15.5 221zM390 399.5q-3 -139.5 30 -212t83 -103.5t124 -31q160 0 277.5 153.5t197.5 530.5q43 199 48 337t-26.5 212t-81 104.5t-124.5 30.5q-166 0 -285 -158.5t-197 -525.5q-43 -198 -46 -337.5zM600 1610l397 291l271 -291l-58 -51l-241 215l-332 -215z" />
<glyph unicode="&#xd5;" d="M290 416q5 137 44 321q25 119 51.5 211t76.5 202t110.5 182.5t153.5 121.5t208 49q90 0 153.5 -30.5t99.5 -74.5t52 -119t18.5 -133.5t-8 -149.5t-19.5 -136l-26 -123q-49 -227 -114.5 -382.5t-146.5 -236.5t-159.5 -114t-175.5 -33q-76 0 -132 18.5t-103 70t-67.5 135.5 t-15.5 221zM390 399.5q-3 -139.5 30 -212t83 -103.5t124 -31q160 0 277.5 153.5t197.5 530.5q43 199 48 337t-26.5 212t-81 104.5t-124.5 30.5q-166 0 -285 -158.5t-197 -525.5q-43 -198 -46 -337.5zM553 1638q127 193 268 193q16 0 31.5 -3t27 -7t26.5 -13l23 -12 q7 -4 23 -15l23 -16q96 -68 137 -67q88 0 156 110l69 -30q-43 -68 -107.5 -114t-134 -46t-157.5 65q-4 2 -15.5 11.5t-15.5 12.5t-15 10t-18 10l-16 9q-10 5 -19.5 7t-20.5 4t-21 2q-88 0 -174 -137z" />
<glyph unicode="&#xd6;" d="M290 416q5 137 44 321q25 119 51.5 211t76.5 202t110.5 182.5t153.5 121.5t208 49q90 0 153.5 -30.5t99.5 -74.5t52 -119t18.5 -133.5t-8 -149.5t-19.5 -136l-26 -123q-49 -227 -114.5 -382.5t-146.5 -236.5t-159.5 -114t-175.5 -33q-76 0 -132 18.5t-103 70t-67.5 135.5 t-15.5 221zM390 399.5q-3 -139.5 30 -212t83 -103.5t124 -31q160 0 277.5 153.5t197.5 530.5q43 199 48 337t-26.5 212t-81 104.5t-124.5 30.5q-166 0 -285 -158.5t-197 -525.5q-43 -198 -46 -337.5zM678 1726q8 47 49 81t88 34t75 -33.5t17.5 -81t-51.5 -81t-88 -33.5 t-73.5 33.5t-16.5 80.5zM1053 1726q8 47 49 81t88 34t74.5 -33.5t17.5 -81t-51 -81t-88 -33.5t-73.5 33.5t-16.5 80.5z" />
<glyph unicode="&#xd7;" d="M213 258l481 479l-481 482l63 63l482 -481l481 481l64 -63l-482 -482l482 -479l-64 -65l-481 481l-482 -481z" />
<glyph unicode="&#xd8;" d="M150 -8l143 186q-51 184 24 547l31 134q12 52 41 142.5t56.5 150.5t75.5 133t102.5 116t130 72.5t164.5 29.5q197 0 278 -155l96 127l60 -41l-127 -164q41 -190 -29 -520q-16 -74 -29.5 -128.5t-41 -141.5t-58.5 -150.5t-79 -135t-102.5 -116.5t-130 -76t-163.5 -31 q-180 0 -264 135l-119 -153zM377 285l745 970q-57 166 -221 166q-96 0 -173 -47t-124 -115.5t-84 -163t-56.5 -171t-35.5 -156.5q-6 -31 -8 -43q-61 -297 -43 -440zM395 197q27 -66 83.5 -105t131.5 -39q98 0 178 54.5t137.5 154.5t96.5 217t72 271q55 268 45 409z" />
<glyph unicode="&#xd9;" d="M301 356l238 1119h96l-223 -1047q-41 -197 21.5 -286t193.5 -89q133 0 228 85t132 257l230 1080h96l-234 -1096q-43 -199 -184 -303.5t-287 -104.5q-156 0 -249 112.5t-58 272.5zM670 1808l94 86l268 -266l-57 -61z" />
<glyph unicode="&#xda;" d="M301 356l238 1119h96l-223 -1047q-41 -197 21.5 -286t193.5 -89q133 0 228 85t132 257l230 1080h96l-234 -1096q-43 -199 -184 -303.5t-287 -104.5q-156 0 -249 112.5t-58 272.5zM737 1628l383 266l58 -86l-408 -241z" />
<glyph unicode="&#xdb;" d="M301 356l238 1119h96l-223 -1047q-41 -197 21.5 -286t193.5 -89q133 0 228 85t132 257l230 1080h96l-234 -1096q-43 -199 -184 -303.5t-287 -104.5q-156 0 -249 112.5t-58 272.5zM590 1610l397 291l270 -291l-57 -51l-242 215l-331 -215z" />
<glyph unicode="&#xdc;" d="M301 356l238 1119h96l-223 -1047q-41 -197 21.5 -286t193.5 -89q133 0 228 85t132 257l230 1080h96l-234 -1096q-43 -199 -184 -303.5t-287 -104.5q-156 0 -249 112.5t-58 272.5zM647 1726q8 47 49 81t88 34t75 -33.5t17.5 -81t-51.5 -81t-88 -33.5t-73.5 33.5 t-16.5 80.5zM1022 1726q8 47 49 81t88 34t75 -33.5t17.5 -81t-51.5 -81t-88 -33.5t-73.5 33.5t-16.5 80.5z" />
<glyph unicode="&#xdd;" d="M471 1475h109l153 -738l467 738h109l-551 -850l-133 -625h-97l134 625zM717 1628l383 266l57 -86l-407 -241z" />
<glyph unicode="&#xde;" d="M297 0l313 1475h97l-64 -301h236q111 0 184.5 -38t103 -99.5t37.5 -140.5t-14 -163q-45 -213 -189.5 -323.5t-357.5 -110.5h-186l-64 -299h-96zM475 381h172q186 0 296 93t144 257q41 190 -25.5 275.5t-195.5 85.5h-241z" />
<glyph unicode="&#xdf;" d="M303 0l252 1190q23 109 130.5 211t244.5 102q150 0 218.5 -108.5t35.5 -261.5q-47 -215 -283 -338q252 -90 182 -410q-43 -199 -154.5 -303.5t-246.5 -104.5q-86 0 -152 56l60 69q53 -43 117 -43q96 0 172.5 88.5t105.5 227.5q41 193 -31.5 275.5t-255.5 94.5l19 82 q133 6 238.5 93.5t131.5 220.5q25 115 -23 197.5t-161 82.5q-94 0 -161.5 -65.5t-92.5 -179.5l-250 -1176h-96z" />
<glyph unicode="&#xe0;" d="M295 322q35 164 145.5 274.5t261.5 110.5q119 0 250 -72q51 205 21.5 297t-160.5 92q-100 0 -274 -72l-4 88q182 66 303 66q150 0 211 -100.5t18 -280.5l-106 -442q-29 -119 -9 -293l-90 -13q-14 98 -2 185q-82 -92 -159.5 -138.5t-176.5 -46.5q-143 0 -201.5 100 t-27.5 245zM391 313q-23 -100 15 -177t135 -77q92 0 168.5 58.5t160.5 161.5l60 280q-113 66 -221 66q-127 0 -209 -90.5t-109 -221.5zM670 1417l94 86l268 -266l-57 -61z" />
<glyph unicode="&#xe1;" d="M295 322q35 164 145.5 274.5t261.5 110.5q119 0 250 -72q51 205 21.5 297t-160.5 92q-100 0 -274 -72l-4 88q182 66 303 66q150 0 211 -100.5t18 -280.5l-106 -442q-29 -119 -9 -293l-90 -13q-14 98 -2 185q-82 -92 -159.5 -138.5t-176.5 -46.5q-143 0 -201.5 100 t-27.5 245zM391 313q-23 -100 15 -177t135 -77q92 0 168.5 58.5t160.5 161.5l60 280q-113 66 -221 66q-127 0 -209 -90.5t-109 -221.5zM676 1237l383 266l57 -86l-407 -241z" />
<glyph unicode="&#xe2;" d="M295 322q35 164 145.5 274.5t261.5 110.5q119 0 250 -72q51 205 21.5 297t-160.5 92q-100 0 -274 -72l-4 88q182 66 303 66q150 0 211 -100.5t18 -280.5l-106 -442q-29 -119 -9 -293l-90 -13q-14 98 -2 185q-82 -92 -159.5 -138.5t-176.5 -46.5q-143 0 -201.5 100 t-27.5 245zM391 313q-23 -100 15 -177t135 -77q92 0 168.5 58.5t160.5 161.5l60 280q-113 66 -221 66q-127 0 -209 -90.5t-109 -221.5zM518 1219l397 290l271 -290l-58 -52l-241 215l-332 -215z" />
<glyph unicode="&#xe3;" d="M295 322q35 164 145.5 274.5t261.5 110.5q119 0 250 -72q51 205 21.5 297t-160.5 92q-100 0 -274 -72l-4 88q182 66 303 66q150 0 211 -100.5t18 -280.5l-106 -442q-29 -119 -9 -293l-90 -13q-14 98 -2 185q-82 -92 -159.5 -138.5t-176.5 -46.5q-143 0 -201.5 100 t-27.5 245zM391 313q-23 -100 15 -177t135 -77q92 0 168.5 58.5t160.5 161.5l60 280q-113 66 -221 66q-127 0 -209 -90.5t-109 -221.5zM481 1247q127 193 269 193q16 0 31.5 -3t26.5 -7.5t27 -12.5l22 -12q7 -4 24 -15l22 -16q96 -68 137 -67q88 0 156 110l70 -31 q-43 -68 -107.5 -113.5t-134.5 -45.5t-158 65q-4 2 -15 11.5t-15.5 12.5l-15.5 10t-17 10l-17 9q-10 5 -19 7t-20.5 4t-21.5 2q-88 0 -174 -137z" />
<glyph unicode="&#xe4;" d="M295 322q35 164 145.5 274.5t261.5 110.5q119 0 250 -72q51 205 21.5 297t-160.5 92q-100 0 -274 -72l-4 88q182 66 303 66q150 0 211 -100.5t18 -280.5l-106 -442q-29 -119 -9 -293l-90 -13q-14 98 -2 185q-82 -92 -159.5 -138.5t-176.5 -46.5q-143 0 -201.5 100 t-27.5 245zM391 313q-23 -100 15 -177t135 -77q92 0 168.5 58.5t160.5 161.5l60 280q-113 66 -221 66q-127 0 -209 -90.5t-109 -221.5zM596 1335q8 47 49 81t88 34t75 -34t17.5 -81t-51.5 -80.5t-88 -33.5t-73.5 33.5t-16.5 80.5zM971 1335q8 47 49 81t88 34t74.5 -34 t17.5 -81t-51 -80.5t-88 -33.5t-73.5 33.5t-16.5 80.5z" />
<glyph unicode="&#xe5;" d="M295 322q35 164 145.5 274.5t261.5 110.5q119 0 250 -72q51 205 21.5 297t-160.5 92q-100 0 -274 -72l-4 88q182 66 303 66q150 0 211 -100.5t18 -280.5l-106 -442q-29 -119 -9 -293l-90 -13q-14 98 -2 185q-82 -92 -159.5 -138.5t-176.5 -46.5q-143 0 -201.5 100 t-27.5 245zM391 313q-23 -100 15 -177t135 -77q92 0 168.5 58.5t160.5 161.5l60 280q-113 66 -221 66q-127 0 -209 -90.5t-109 -221.5zM721 1351.5q14 69.5 73.5 119t129 49.5t108.5 -49.5t25 -118.5q-16 -70 -75.5 -119t-129.5 -49t-107.5 49t-23.5 118.5zM794.5 1352 q-8.5 -39 13 -67t60.5 -28t73 28t42 67t-13.5 66.5t-60.5 27.5t-72.5 -27.5t-42 -66.5z" />
<glyph unicode="&#xe6;" d="M164 319q33 158 139.5 269.5t259.5 111.5q76 0 144 -36l32 155q43 205 -88 205q-41 0 -91 -17.5t-79 -32.5l-96 -54l-4 86q195 102 289 102q113 0 153 -86q96 84 217 84q152 0 205 -154q29 -74 27 -192.5t-35 -229.5h-463l-55 -262q-25 -109 -4.5 -159t96.5 -50 q113 0 324 115l18 -80q-229 -117 -356 -117q-141 0 -176 95q-109 -94 -244 -95q-137 0 -190.5 99.5t-22.5 242.5zM260 313q-23 -102 15 -178t139 -76q59 0 99 18.5t63.5 62.5t31.5 74t23 95l55 262q-66 47 -147 47q-111 0 -182.5 -93t-96.5 -212zM793 612h366 q14 63 17.5 128t-8 132.5t-52.5 109.5t-110 42q-68 0 -107 -46t-61 -153z" />
<glyph unicode="&#xe7;" d="M338 530q33 158 98.5 275t145.5 179.5t160.5 92t162.5 29.5q227 0 326 -219l-98 -58q-57 195 -246 195q-57 0 -116.5 -20.5t-125 -69.5t-121 -148.5t-86.5 -238.5q-25 -139 -16.5 -233.5t52.5 -151t97.5 -80t116.5 -23.5q154 0 332 170l51 -69q-209 -182 -397 -183 q-8 0 -12 3l-52 -93q80 -2 128 -34.5t32 -106.5q-14 -68 -78.5 -108.5t-134.5 -40.5q-72 0 -182 51l39 67q90 -37 139 -37q35 0 75 19.5t46 52.5q8 39 -26 53.5t-79 14.5q-20 0 -44.5 -2t-28.5 -2l96 172q-147 27 -228 157.5t-26 386.5z" />
<glyph unicode="&#xe8;" d="M293 333.5q-6 100.5 20 203.5q49 233 194.5 401t366.5 168q162 0 250 -136t25 -444h-741q-78 -467 241 -467q166 0 365 107l22 -90q-244 -98 -407 -99q-115 0 -192 49.5t-107.5 128t-36.5 179zM424 608h645q41 154 -17.5 285t-208 131t-270 -131t-149.5 -285zM670 1417 l94 86l268 -266l-57 -61z" />
<glyph unicode="&#xe9;" d="M293 333.5q-6 100.5 20 203.5q49 233 194.5 401t366.5 168q162 0 250 -136t25 -444h-741q-78 -467 241 -467q166 0 365 107l22 -90q-244 -98 -407 -99q-115 0 -192 49.5t-107.5 128t-36.5 179zM424 608h645q41 154 -17.5 285t-208 131t-270 -131t-149.5 -285zM717 1237 l383 266l57 -86l-407 -241z" />
<glyph unicode="&#xea;" d="M293 333.5q-6 100.5 20 203.5q49 233 194.5 401t366.5 168q162 0 250 -136t25 -444h-741q-78 -467 241 -467q166 0 365 107l22 -90q-244 -98 -407 -99q-115 0 -192 49.5t-107.5 128t-36.5 179zM424 608h645q41 154 -17.5 285t-208 131t-270 -131t-149.5 -285zM539 1219 l397 290l270 -290l-57 -52l-242 215l-332 -215z" />
<glyph unicode="&#xeb;" d="M293 333.5q-6 100.5 20 203.5q49 233 194.5 401t366.5 168q162 0 250 -136t25 -444h-741q-78 -467 241 -467q166 0 365 107l22 -90q-244 -98 -407 -99q-115 0 -192 49.5t-107.5 128t-36.5 179zM424 608h645q41 154 -17.5 285t-208 131t-270 -131t-149.5 -285zM596 1335 q8 47 49 81t88 34t75 -34t17.5 -81t-51.5 -80.5t-88 -33.5t-73.5 33.5t-16.5 80.5zM971 1335q8 47 49 81t88 34t74.5 -34t17.5 -81t-51 -80.5t-88 -33.5t-73.5 33.5t-16.5 80.5z" />
<glyph unicode="&#xec;" d="M489 1001l17 82h412l-230 -1083h-96l213 1001h-316zM670 1417l94 86l268 -266l-57 -61z" />
<glyph unicode="&#xed;" d="M489 1001l17 82h412l-230 -1083h-96l213 1001h-316zM635 1237l383 266l57 -86l-407 -241z" />
<glyph unicode="&#xee;" d="M457 1219l397 290l270 -290l-57 -52l-242 215l-331 -215zM489 1001l17 82h412l-230 -1083h-96l213 1001h-316z" />
<glyph unicode="&#xef;" d="M489 1001l17 82h412l-230 -1083h-96l213 1001h-316zM596 1335q8 47 49 81t88 34t75 -34t17.5 -81t-51.5 -80.5t-88 -33.5t-73.5 33.5t-16.5 80.5zM971 1335q8 47 49 81t88 34t74.5 -34t17.5 -81t-51 -80.5t-88 -33.5t-73.5 33.5t-16.5 80.5z" />
<glyph unicode="&#xf0;" d="M307 268.5q-10 108.5 19 274.5q59 291 210.5 427t321.5 136q150 0 223 -117l4 4q-35 195 -157 322l-328 -144l-49 62l317 141q-98 76 -211 105l78 41q121 -25 228 -109l245 109l45 -64l-231 -102q111 -121 153 -303.5t-4 -436.5q-131 -637 -548 -637q-74 0 -136.5 26 t-116 91.5t-63.5 174zM400 376q-3 -77 13.5 -153t74 -120t151.5 -44t170 44t124 120t77.5 154t48 166t21.5 165.5t-13 152.5t-74.5 119t-152.5 44q-76 0 -140.5 -30.5t-108.5 -78t-79 -113t-55.5 -128t-34.5 -131.5q-19 -90 -22 -167z" />
<glyph unicode="&#xf1;" d="M248 0l114 543q74 348 76 553h90l-28 -312h4q59 125 194.5 223.5t259.5 98.5q92 0 141.5 -50t51.5 -124t-12 -160l-164 -772h-96l153 727l15.5 80t7.5 77t-9.5 73.5t-40 46t-77.5 20.5q-61 0 -130 -31.5t-139.5 -97.5t-130 -182.5t-90.5 -266.5l-94 -446h-96zM461 1247 q127 193 268 193q16 0 31.5 -3t27 -7.5t26.5 -12.5l23 -12q7 -4 23 -15l23 -16q96 -68 137 -67q88 0 156 110l69 -31q-43 -68 -107.5 -113.5t-134 -45.5t-157.5 65q-4 2 -15.5 11.5t-15.5 12.5t-15.5 10t-17.5 10l-16 9q-10 5 -19.5 7t-20.5 4t-21 2q-88 0 -175 -137z" />
<glyph unicode="&#xf2;" d="M310 268.5q-9 108.5 20 274.5q33 152 93 265.5t135 176t151.5 92t154.5 29.5q74 0 135.5 -25.5t114.5 -90t63.5 -173t-18.5 -274.5q-33 -158 -95.5 -273.5t-139 -176t-151.5 -88.5t-148.5 -28t-136 26t-116 91.5t-62.5 174zM404.5 376q-3.5 -77 13 -153t73 -120 t150.5 -44t170 44t125 120t78.5 153t48 167t21.5 165.5t-13 151.5t-73.5 120t-151.5 44t-170 -44t-124 -120t-78 -151.5t-48 -165.5t-21.5 -167zM670 1417l94 86l268 -266l-57 -61z" />
<glyph unicode="&#xf3;" d="M310 268.5q-9 108.5 20 274.5q33 152 93 265.5t135 176t151.5 92t154.5 29.5q74 0 135.5 -25.5t114.5 -90t63.5 -173t-18.5 -274.5q-33 -158 -95.5 -273.5t-139 -176t-151.5 -88.5t-148.5 -28t-136 26t-116 91.5t-62.5 174zM404.5 376q-3.5 -77 13 -153t73 -120 t150.5 -44t170 44t125 120t78.5 153t48 167t21.5 165.5t-13 151.5t-73.5 120t-151.5 44t-170 -44t-124 -120t-78 -151.5t-48 -165.5t-21.5 -167zM717 1237l383 266l57 -86l-407 -241z" />
<glyph unicode="&#xf4;" d="M310 268.5q-9 108.5 20 274.5q33 152 93 265.5t135 176t151.5 92t154.5 29.5q74 0 135.5 -25.5t114.5 -90t63.5 -173t-18.5 -274.5q-33 -158 -95.5 -273.5t-139 -176t-151.5 -88.5t-148.5 -28t-136 26t-116 91.5t-62.5 174zM404.5 376q-3.5 -77 13 -153t73 -120 t150.5 -44t170 44t125 120t78.5 153t48 167t21.5 165.5t-13 151.5t-73.5 120t-151.5 44t-170 -44t-124 -120t-78 -151.5t-48 -165.5t-21.5 -167zM539 1219l397 290l270 -290l-57 -52l-242 215l-332 -215z" />
<glyph unicode="&#xf5;" d="M310 268.5q-9 108.5 20 274.5q33 152 93 265.5t135 176t151.5 92t154.5 29.5q74 0 135.5 -25.5t114.5 -90t63.5 -173t-18.5 -274.5q-33 -158 -95.5 -273.5t-139 -176t-151.5 -88.5t-148.5 -28t-136 26t-116 91.5t-62.5 174zM404.5 376q-3.5 -77 13 -153t73 -120 t150.5 -44t170 44t125 120t78.5 153t48 167t21.5 165.5t-13 151.5t-73.5 120t-151.5 44t-170 -44t-124 -120t-78 -151.5t-48 -165.5t-21.5 -167zM502 1247q127 193 268 193q16 0 31.5 -3t27 -7.5t26.5 -12.5l23 -12q7 -4 23 -15l23 -16q96 -68 137 -67q88 0 156 110l69 -31 q-43 -68 -107.5 -113.5t-134 -45.5t-157.5 65q-4 2 -15.5 11.5t-15.5 12.5t-15.5 10t-17.5 10l-16 9q-10 5 -19.5 7t-20.5 4t-22 2q-88 0 -174 -137z" />
<glyph unicode="&#xf6;" d="M310 268.5q-9 108.5 20 274.5q33 152 93 265.5t135 176t151.5 92t154.5 29.5q74 0 135.5 -25.5t114.5 -90t63.5 -173t-18.5 -274.5q-33 -158 -95.5 -273.5t-139 -176t-151.5 -88.5t-148.5 -28t-136 26t-116 91.5t-62.5 174zM404.5 376q-3.5 -77 13 -153t73 -120 t150.5 -44t170 44t125 120t78.5 153t48 167t21.5 165.5t-13 151.5t-73.5 120t-151.5 44t-170 -44t-124 -120t-78 -151.5t-48 -165.5t-21.5 -167zM616 1335q8 47 49.5 81t88.5 34t74.5 -34t17.5 -81t-51 -80.5t-88.5 -33.5t-74 33.5t-16.5 80.5zM991 1335q8 47 49 81t88.5 34 t75 -34t17 -81t-51.5 -80.5t-88 -33.5t-73.5 33.5t-16.5 80.5z" />
<glyph unicode="&#xf7;" d="M213 692v90h1090v-90h-1090zM670 420q0 37 25.5 62.5t62.5 25.5t62.5 -25.5t25.5 -62.5t-25.5 -62.5t-62.5 -25.5t-62.5 25.5t-25.5 62.5zM670 1055q0 37 25.5 62.5t62.5 25.5t62.5 -25.5t25.5 -62.5t-25.5 -62.5t-62.5 -25.5t-62.5 25.5t-25.5 62.5z" />
<glyph unicode="&#xf8;" d="M213 -12l113 137q-82 145 -25 418q61 291 213 427t324 136q131 0 217 -82l98 123l53 -45l-106 -131q92 -147 30 -428q-61 -293 -211.5 -429.5t-320.5 -136.5q-139 0 -231 93l-101 -127zM395 209l602 743q-59 72 -178 72q-94 0 -170 -44t-125 -120t-78.5 -151.5 t-48.5 -165.5q-45 -209 -2 -334zM428 141q55 -82 186 -82q94 0 170 44t124 120t78 153t48 167q47 227 0 348z" />
<glyph unicode="&#xf9;" d="M311 157.5q-2 75.5 13 161.5l161 764h97l-152 -718q-33 -154 -8.5 -230t110.5 -76q139 0 286 151.5t206 434.5l92 438h96l-112 -534q-72 -338 -74 -549h-90l25 307h-5q-59 -125 -194 -227.5t-258 -102.5q-92 0 -141.5 52.5t-51.5 128zM670 1417l94 86l268 -266l-57 -61z " />
<glyph unicode="&#xfa;" d="M311 157.5q-2 75.5 13 161.5l161 764h97l-152 -718q-33 -154 -8.5 -230t110.5 -76q139 0 286 151.5t206 434.5l92 438h96l-112 -534q-72 -338 -74 -549h-90l25 307h-5q-59 -125 -194 -227.5t-258 -102.5q-92 0 -141.5 52.5t-51.5 128zM676 1237l383 266l57 -86l-407 -241 z" />
<glyph unicode="&#xfb;" d="M311 157.5q-2 75.5 13 161.5l161 764h97l-152 -718q-33 -154 -8.5 -230t110.5 -76q139 0 286 151.5t206 434.5l92 438h96l-112 -534q-72 -338 -74 -549h-90l25 307h-5q-59 -125 -194 -227.5t-258 -102.5q-92 0 -141.5 52.5t-51.5 128zM539 1219l397 290l270 -290l-57 -52 l-242 215l-332 -215z" />
<glyph unicode="&#xfc;" d="M311 157.5q-2 75.5 13 161.5l161 764h97l-152 -718q-33 -154 -8.5 -230t110.5 -76q139 0 286 151.5t206 434.5l92 438h96l-112 -534q-72 -338 -74 -549h-90l25 307h-5q-59 -125 -194 -227.5t-258 -102.5q-92 0 -141.5 52.5t-51.5 128zM596 1335q8 47 49 81t88 34t75 -34 t17.5 -81t-51.5 -80.5t-88 -33.5t-73.5 33.5t-16.5 80.5zM971 1335q8 47 49 81t88 34t74.5 -34t17.5 -81t-51 -80.5t-88 -33.5t-73.5 33.5t-16.5 80.5z" />
<glyph unicode="&#xfd;" d="M25 -139l90 43q23 -168 133 -168q37 0 71.5 18.5t67.5 54t52.5 61.5t45.5 69l121 186l-149 958h106l117 -831l487 831h111l-623 -1030q-45 -76 -62.5 -102.5t-69.5 -98t-89 -104.5t-93 -63.5t-112 -30.5q-88 0 -141 59.5t-63 147.5zM676 1237l383 266l57 -86l-407 -241z " />
<glyph unicode="&#xfe;" d="M166 -434l414 1954h96l-119 -564l4 -4q78 82 144.5 118t156.5 36q72 0 135.5 -29.5t115.5 -96.5t64.5 -176.5t-18.5 -268.5q-27 -125 -78 -224.5t-110.5 -160t-127 -101.5t-122.5 -56.5t-105 -15.5q-152 0 -247 93l-107 -504h-96zM389 166q98 -106 219 -107q41 0 87 11.5 t102.5 45.5t105.5 85t93 139t69 201q25 141 16.5 234t-51.5 148.5t-90 78t-98 22.5q-170 0 -316 -217z" />
<glyph unicode="&#xff;" d="M25 -139l90 43q23 -168 133 -168q37 0 71.5 18.5t67.5 54t52.5 61.5t45.5 69l121 186l-149 958h106l117 -831l487 831h111l-623 -1030q-45 -76 -62.5 -102.5t-69.5 -98t-89 -104.5t-93 -63.5t-112 -30.5q-88 0 -141 59.5t-63 147.5zM596 1335q8 47 49 81t88 34t75 -34 t17.5 -81t-51.5 -80.5t-88 -33.5t-73.5 33.5t-16.5 80.5zM971 1335q8 47 49 81t88 34t74.5 -34t17.5 -81t-51 -80.5t-88 -33.5t-73.5 33.5t-16.5 80.5z" />
<glyph unicode="&#x152;" d="M181 297q-3 61 0 110.5t12.5 117t17.5 113.5t22 110q47 221 114 373.5t147.5 233.5t163.5 114.5t184 33.5q68 0 143 -28h522l-16 -82h-426l-125 -588h297l-18 -82h-297l-136 -641h443l-19 -82h-538q-29 -10 -82 -23q-41 -6 -84 -6q-68 0 -122 17.5t-90 44t-60.5 70.5 t-37 88.5t-15.5 105.5zM285 293q27 -240 241 -240q76 0 164 35l275 1294q-78 39 -148 39q-90 0 -166 -45t-124 -109.5t-89 -163.5t-61.5 -174t-40.5 -175q-67 -320 -51 -461z" />
<glyph unicode="&#x153;" d="M217 543q59 272 195.5 418.5t271.5 146.5q84 0 160 -70q86 68 196 68q20 0 40 -2t51.5 -14.5t55 -34t47 -64.5t33 -101.5t3.5 -151.5t-33 -208h-471l-55 -262q-23 -109 0.5 -159t99.5 -50q113 0 324 115l18 -80q-229 -117 -356 -117q-119 0 -176 86q-86 -86 -179 -86 q-129 0 -206.5 141.5t-18.5 424.5zM312 182q50 -123 141 -123q72 0 133 76l180 844q-12 45 -84 45q-111 0 -212 -113.5t-157 -367.5q-51 -238 -1 -361zM784 612h375q14 63 17.5 128t-8 132.5t-52.5 109.5t-110.5 42t-111.5 -46t-65 -153z" />
<glyph unicode="&#x178;" d="M471 1475h109l153 -738l467 738h109l-551 -850l-133 -625h-97l134 625zM637 1726q8 47 49 81t88 34t75 -33.5t17.5 -81t-51.5 -81t-88 -33.5t-73.5 33.5t-16.5 80.5zM1012 1726q8 47 49 81t88 34t74.5 -33.5t17.5 -81t-51 -81t-88 -33.5t-73.5 33.5t-16.5 80.5z" />
<glyph unicode="&#x2c6;" d="M539 1219l397 290l270 -290l-57 -52l-242 215l-332 -215z" />
<glyph unicode="&#x2dc;" d="M502 1247q127 193 268 193q16 0 31.5 -3t27 -7.5t26.5 -12.5l23 -12q7 -4 23 -15l23 -16q96 -68 137 -67q88 0 156 110l69 -31q-43 -68 -107.5 -113.5t-134 -45.5t-157.5 65q-4 2 -15.5 11.5t-15.5 12.5t-15.5 10t-17.5 10l-16 9q-10 5 -19.5 7t-20.5 4t-22 2 q-88 0 -174 -137z" />
<glyph unicode="&#x2013;" d="M401 694l19 82h721l-19 -82h-721z" />
<glyph unicode="&#x2014;" d="M123 442v148h1229v-148h-1229z" />
<glyph unicode="&#x2018;" d="M756 1210q20 102 120.5 182.5t215.5 110.5l-19 -86q-133 -37 -184 -121q4 0 18.5 3.5t20.5 3.5q57 0 83.5 -35t14.5 -92.5t-60 -95.5t-104 -38q-63 0 -91.5 50t-14.5 118z" />
<glyph unicode="&#x2019;" d="M723 1042l18 86q131 37 187 121q-6 0 -20.5 -3t-20.5 -3q-57 0 -84 35t-14.5 92t60.5 95t103 38q66 0 94.5 -50t14.5 -118q-20 -102 -121.5 -182t-216.5 -111z" />
<glyph unicode="&#x201a;" d="M455 -223l18 86q133 37 184 121q-8 0 -20 -4q-2 0 -8 -1.5t-11 -1.5q-57 0 -83.5 35t-14.5 92.5t60.5 95.5t103.5 38q66 0 93.5 -50.5t13.5 -117.5q-20 -102 -120.5 -182t-215.5 -111z" />
<glyph unicode="&#x201c;" d="M526 1210q20 102 121 182.5t215 110.5l-18 -86q-133 -37 -185 -121q4 0 18.5 3.5t20.5 3.5q57 0 84 -35t14.5 -92.5t-60.5 -95.5t-103 -38q-63 0 -92 50t-15 118zM983 1210q20 102 120.5 182.5t215.5 110.5l-19 -86q-133 -37 -184 -121q4 0 17.5 3.5t21.5 3.5 q57 0 84 -35t14.5 -92.5t-60.5 -95.5t-103 -38q-66 0 -93.5 50t-13.5 118z" />
<glyph unicode="&#x201d;" d="M494 1042l18 86q131 37 186 121q-6 0 -20 -3t-21 -3q-57 0 -83.5 35t-14.5 92t60.5 95t103.5 38q66 0 94.5 -50t13.5 -118q-20 -102 -121 -182t-216 -111zM950 1042l19 86q131 37 186 121q-6 0 -20.5 -3t-20.5 -3q-57 0 -83.5 35t-14.5 92t60 95t104 38q66 0 94.5 -50 t13.5 -118q-20 -102 -121.5 -182t-216.5 -111z" />
<glyph unicode="&#x201e;" d="M225 -223l19 86q133 37 184 121q-8 0 -20 -4q-2 0 -8.5 -1.5t-10.5 -1.5q-57 0 -83.5 35t-14.5 92.5t60 95.5t104 38q66 0 93 -50.5t13 -117.5q-20 -102 -120.5 -182t-215.5 -111zM682 -223l18 86q133 37 185 121q-8 0 -21 -4q-4 0 -10 -1.5t-8 -1.5q-57 0 -84 35 t-14.5 92.5t60.5 95.5t103 38q63 0 92 -50.5t15 -117.5q-20 -102 -120.5 -182t-215.5 -111z" />
<glyph unicode="&#x2022;" d="M362 516q0 102 75 177t177.5 75t177 -75t74.5 -177q0 -104 -73.5 -178t-178.5 -74q-106 0 -179 73t-73 179z" />
<glyph unicode="&#x2026;" d="M98 98q10 51 56.5 90t99.5 39q51 0 81 -37.5t19 -91.5q-10 -51 -56 -89t-99 -38q-51 0 -81 37t-20 90zM506 98q10 51 56 90t100 39q51 0 80.5 -37.5t19.5 -91.5q-10 -51 -56.5 -89t-99.5 -38q-51 0 -80.5 37t-19.5 90zM913 98q10 51 56.5 90t99.5 39q51 0 81 -37.5 t19 -91.5q-10 -51 -56 -89t-99 -38q-51 0 -81 37t-20 90z" />
<glyph unicode="&#x2039;" d="M430 729l639 510l45 -61l-563 -449l373 -448l-74 -66z" />
<glyph unicode="&#x203a;" d="M424 281l565 448l-375 449l74 61l422 -510l-641 -514z" />
<glyph unicode="&#x20ac;" d="M303 627l53 82h115q4 16 10 47.5t11 48.5h-152l55 82h115q20 92 57 184t101.5 196.5t168 170t230.5 65.5q96 0 169 -34.5t93.5 -58.5t32.5 -44l-68 -90q-2 6 -7 16.5t-26.5 36t-46 45t-68.5 35.5t-95 16q-119 0 -216.5 -89t-149.5 -203.5t-81 -245.5h479l-53 -82h-444 q-4 -16 -10.5 -48t-10.5 -48h402l-54 -82h-362q-14 -76 -22.5 -130.5t-12.5 -128t8.5 -123.5t38 -97.5t78.5 -72t129 -24.5q70 0 143.5 33t103.5 56.5t44 37.5l-25 -112q-31 -29 -108.5 -62t-177.5 -33q-109 0 -180.5 39t-104.5 97.5t-40 151.5t2 175t30 193h-154z" />
<glyph unicode="&#x2122;" d="M324 1421l16 82h469l-16 -82h-193l-106 -495h-82l106 495h-194zM756 926l123 577h139l80 -407l258 407h135l-123 -577h-82l107 495h-4l-304 -495h-53l-84 495h-4l-106 -495h-82z" />
<glyph unicode="&#xe000;" horiz-adv-x="1085" d="M0 1085h1085v-1085h-1085v1085z" />
<glyph unicode="&#xfb01;" d="M291 0l213 1001h-205l16 82h205l17 72q37 168 149.5 258t239.5 90q18 0 37.5 -1t40 -6t35 -8t37 -11.5t32.5 -11.5t35.5 -14t33 -13t34.5 -16l32 -15l-22 -111l-67 39q-52 31 -78.5 44.5t-72 27.5t-85.5 14q-227 0 -283 -254l-19 -84h578l-229 -1083h-97l213 1001h-481 l-213 -1001h-96z" />
<glyph unicode="&#xfb02;" d="M289 0l213 1004h-205l18 81h205l15 72q33 168 147.5 259t241.5 87q80 -2 153.5 -27.5t212.5 -89.5l-295 -1386h-96l281 1323q-4 2 -39 21.5t-45.5 24.5t-41 18.5t-48 18.5t-43 11t-48.5 6q-113 2 -184.5 -65.5t-97.5 -190.5l-19 -84h304l-17 -79h-303l-213 -1004h-96z " />
<glyph unicode="&#xfb03;" horiz-adv-x="3686" d="M2947 1001l17 82h412l-230 -1083h-96l213 1001h-316zM3285 1397q8 45 46 75.5t83 30.5t70 -30q18 -23 18 -55q0 -10 -2 -21q-8 -45 -47 -76t-84 -31t-69 31q-17 22 -18 50q0 13 3 26zM1645 928l18 82h279l26 123q43 195 151.5 282.5t239.5 87.5q109 0 252 -67l-22 -103 q-23 10 -61.5 31.5t-59 31t-51.5 17.5t-64 8q-109 0 -180.5 -56t-93.5 -165l-41 -190h358l-18 -82h-358l-197 -928h-96l196 928h-278zM416 928l18 82h279l26 123q43 195 151.5 282.5t239.5 87.5q109 0 252 -67l-22 -103q-23 10 -61.5 31.5t-59 31t-51.5 17.5t-64 8 q-109 0 -180.5 -56t-93.5 -165l-41 -190h358l-18 -82h-358l-197 -928h-96l196 928h-278z" />
<glyph unicode="&#xfb04;" horiz-adv-x="3686" d="M3021 1438l19 82h415l-323 -1520h-96l305 1438h-320zM1645 928l18 82h279l26 123q43 195 151.5 282.5t239.5 87.5q109 0 252 -67l-22 -103q-23 10 -61.5 31.5t-59 31t-51.5 17.5t-64 8q-109 0 -180.5 -56t-93.5 -165l-41 -190h358l-18 -82h-358l-197 -928h-96l196 928 h-278zM416 928l18 82h279l26 123q43 195 151.5 282.5t239.5 87.5q109 0 252 -67l-22 -103q-23 10 -61.5 31.5t-59 31t-51.5 17.5t-64 8q-109 0 -180.5 -56t-93.5 -165l-41 -190h358l-18 -82h-358l-197 -928h-96l196 928h-278z" />
</font>
</defs>
</svg>
