<?xml version="1.0" standalone="no"?>
<!DOCTYPE svg PUBLIC "-//W3C//DTD SVG 1.1//EN" "http://www.w3.org/Graphics/SVG/1.1/DTD/svg11.dtd" >
<svg xmlns="http://www.w3.org/2000/svg">
<metadata>
This is a custom SVG webfont generated by Font Squirrel.
Copyright   :  1987 1990 1991 1995 1998 2001 2002 Adobe Systems Incorporated All rights reserved
Designer    : Roger Roberson
Foundry URL : httpwwwadobecomtype
</metadata>
<defs>
<font id="LetterGothicStdBoldSlanted" horiz-adv-x="1228" >
<font-face units-per-em="2048" ascent="1520" descent="-528" />
<missing-glyph horiz-adv-x="500" />
<glyph unicode=" " />
<glyph unicode="!" d="M479 131q14 66 72.5 112t126 46t106.5 -45t25 -113t-72.5 -114t-126 -46t-106.5 46t-25 114zM645 449l182 1026h201l-246 -1026h-137z" />
<glyph unicode="&#x22;" d="M487 1208l58 267h282l-57 -267l-141 -264h-111zM971 1208l57 267h283l-58 -267l-141 -264h-111z" />
<glyph unicode="#" d="M33 471l30 135h267l49 271h-268l24 135h271l116 637h154l-340 -1846h-154l123 668h-272zM545 -197l340 1846h153l-116 -637h272l-27 -135h-272l-49 -271h274l-24 -135h-275l-123 -668h-153z" />
<glyph unicode="$" d="M268 291l119 110q98 -119 203 -135l98 463q-113 41 -172 121q-66 94 -41 211q25 119 125 203t223 104l33 152h154l-33 -150q152 -20 264 -143l-115 -117q-82 102 -178 125l-86 -406q276 -111 221 -368q-31 -137 -130 -223t-240 -109l-39 -190h-154l39 190 q-168 12 -291 162zM629 1057q-25 -113 92 -183l76 355q-78 -37 -116 -70.5t-52 -101.5zM741 264q72 20 122 70.5t65 122.5q31 150 -97 227z" />
<glyph unicode="%" d="M131 -29l1100 1532h147l-1099 -1532h-148zM340 1118q31 152 141.5 268.5t255.5 116.5q102 0 149.5 -58.5t26.5 -160.5q-35 -158 -144.5 -280.5t-258.5 -122.5q-109 0 -152 64t-18 173zM481 1098q-23 -104 57 -104.5t145 99t85 193.5q20 104 -53 105q-86 0 -150 -97.5 t-84 -195.5zM612 209q31 152 141.5 268.5t256.5 116.5q102 0 149 -58.5t27 -160.5q-35 -158 -144.5 -281t-259.5 -123q-109 0 -152 64.5t-18 173.5zM754 188q-23 -104 57 -104t144.5 99.5t84.5 193.5q20 104 -53 104q-86 0 -149.5 -97.5t-83.5 -195.5z" />
<glyph unicode="&#x26;" d="M227 307q29 137 117 250t236 248q-92 219 -62 362q37 168 141.5 252t200.5 84q117 0 171 -84t30 -202q-16 -84 -69.5 -165t-97.5 -126t-136 -131l160 -389q16 41 36 102q18 61 60 246h149q-74 -328 -174 -490l135 -203l-127 -108l-116 180q-172 -162 -375 -162 q-156 0 -234 91t-45 245zM381 309q-20 -94 18.5 -151.5t132.5 -57.5q162 0 291 146l-190 426q-68 -63 -110 -110.5t-85 -117t-57 -135.5zM676 1188q-27 -117 31 -266q12 12 49 54l53 61q16 19 40.5 54t39 67t20.5 67q10 53 -6 101t-67 48q-59 0 -102.5 -60t-57.5 -126z" />
<glyph unicode="'" d="M729 1208l57 267h283l-57 -267l-142 -266h-110z" />
<glyph unicode="(" d="M501.5 205.5q-57.5 236.5 2.5 474.5q53 256 205.5 482.5t382.5 357.5l51 -103q-381 -236 -486 -737q-106 -502 172 -739l-96 -101q-174 129 -231.5 365.5z" />
<glyph unicode=")" d="M375 -59q379 233 487 739q104 504 -174 737l96 103q174 -131 231.5 -366.5t0.5 -473.5q-55 -256 -208 -483.5t-382 -356.5z" />
<glyph unicode="*" d="M358 1071l70 133l346 -108l80 379h145l-79 -379l391 108l14 -133l-401 -108l174 -299l-127 -86l-172 292l-289 -292l-94 86l299 299z" />
<glyph unicode="+" d="M195 670v135h491v485h143v-485h492v-135h-492v-486h-143v486h-491z" />
<glyph unicode="," d="M426 -229l31 139q82 16 143 65q-55 4 -86 44t-18 98q14 70 70.5 114.5t125.5 44.5q74 0 110 -55t19 -131q-25 -119 -142.5 -203.5t-252.5 -115.5z" />
<glyph unicode="-" d="M492 670l26 129h533l-27 -129h-532z" />
<glyph unicode="." d="M479 131q14 66 72.5 112t126 46t106.5 -45t25 -113t-72.5 -114t-126 -46t-106.5 46t-25 114z" />
<glyph unicode="/" d="M229 -55l617 1585h153l-616 -1585h-154z" />
<glyph unicode="0" d="M299 349q0 73 2 112t13.5 111.5t15.5 92t14 72.5q49 231 102 357q170 410 488 409q88 0 150.5 -32.5t96 -80t50 -123t18.5 -137t-8 -149.5t-18.5 -133t-22.5 -111q-14 -61 -18 -81.5t-23.5 -95.5t-35.5 -114l-45 -111q-30 -73 -59.5 -114t-73.5 -95t-92 -83t-111.5 -50.5 t-133 -21.5t-123 22.5t-88.5 53.5t-56.5 86t-31.5 99t-10 117zM447.5 349.5q-1.5 -60.5 11 -98.5t32 -76t56.5 -56.5t88 -18.5q57 0 106.5 25t105.5 89.5t107.5 196.5t92.5 326q41 188 47 318.5t-19.5 197t-66.5 94t-101 27.5q-281 0 -405 -620q-2 -12 -4 -17 q-12 -53 -18 -82l-17 -95q-12 -67 -13 -108.5z" />
<glyph unicode="1" d="M268 0l27 129h276l260 1223l-307 -88l25 116l473 140l-297 -1391h264l-26 -129h-695z" />
<glyph unicode="2" d="M205 0l14 66q49 225 161 361t345 304q213 152 289 238q84 92 102 176q23 104 -22 166.5t-148 62.5q-127 0 -213 -88t-119 -219h-153q53 195 187 315.5t327 120.5q166 0 248 -95t47 -261q-8 -41 -26.5 -81t-35 -69.5t-51.5 -68.5l-53 -60q-18 -20 -67 -59l-63 -51 q-15 -12 -71.5 -54t-66.5 -51l-127 -96q-133 -100 -211 -197.5t-113 -230.5h672l-27 -129h-825z" />
<glyph unicode="3" d="M197 252l151 80q27 -113 88.5 -172.5t173.5 -59.5q135 0 238.5 79t132.5 214q35 172 -56 260t-263 72l28 129q127 -6 239.5 72t139.5 204q23 106 -36.5 175t-166.5 69q-90 0 -178 -62.5t-147 -150.5l-115 74q92 127 218 197.5t265 70.5q164 0 255 -111.5t57 -273.5 q-41 -197 -263 -317q238 -115 181 -387q-43 -201 -201 -322t-360 -121q-147 0 -236.5 72t-144.5 209z" />
<glyph unicode="4" d="M207 381l20 100l760 1022h199l-211 -993h211l-27 -129h-211l-82 -381h-153l82 381h-588zM410 510h411l166 784h-4z" />
<glyph unicode="5" d="M252 217l137 88q25 -88 88.5 -146.5t155.5 -58.5q123 0 219 105.5t123 234.5q35 172 -23.5 263.5t-154.5 91.5q-147 0 -287 -168l-150 30l236 818h659l-26 -129h-522l-152 -517q125 94 266 95q176 0 266.5 -128t42.5 -343q-41 -199 -189 -340.5t-345 -141.5 q-235 0 -344 246z" />
<glyph unicode="6" d="M297 401.5q4 104.5 31 225.5q47 219 132 392t187.5 276.5t211 155.5t214.5 52q131 0 258 -90l-102 -127q-37 31 -56.5 44t-56.5 28.5t-76 15.5q-119 0 -235.5 -104.5t-187 -233.5t-101.5 -245q166 150 346 149.5t253 -136.5t34 -323q-43 -205 -188.5 -357.5 t-344.5 -152.5q-127 0 -203.5 60.5t-98 163t-17.5 207zM444.5 286.5q4.5 -75.5 54.5 -131t134 -55.5q143 0 236.5 114t125.5 265q29 137 -12 234.5t-170 97.5q-119 0 -224.5 -112.5t-135.5 -254.5q-13 -82 -8.5 -157.5z" />
<glyph unicode="7" d="M276 0l828 1346h-627l27 129h827l-889 -1475h-166z" />
<glyph unicode="8" d="M229 401q27 123 106 226.5t193 144.5q-76 82 -99 154.5t1 189.5q37 176 180.5 281.5t323.5 105.5q186 0 280.5 -107.5t53.5 -293.5q-23 -109 -78 -180.5t-162 -149.5q98 -41 133 -144.5t10 -226.5q-41 -188 -189 -309t-374 -121q-231 0 -324.5 123t-54.5 307zM383 401 q-31 -141 39 -221t213 -80t247.5 80t135.5 221q29 139 -42 220t-212 81t-246.5 -81t-134.5 -220zM578 1087q-25 -117 35.5 -186.5t177.5 -69.5q123 0 209.5 74t115.5 199q27 125 -28.5 197.5t-180.5 72.5q-129 0 -214.5 -78t-114.5 -209z" />
<glyph unicode="9" d="M211 61l102 127q100 -88 189 -88q92 0 182 60.5t156.5 154t115 189.5t70.5 182q-168 -152 -346 -151q-180 0 -254 136t-35 322q43 205 189.5 357.5t345.5 152.5q127 0 203.5 -60.5t98 -162.5t17.5 -206.5t-31 -225.5q-88 -414 -300 -645.5t-445 -231.5q-131 0 -258 90z M545 995q-29 -135 12 -233t170 -98q121 0 226.5 112.5t136.5 255.5q29 131 -14.5 236.5t-166.5 105.5q-143 0 -238 -113.5t-126 -265.5z" />
<glyph unicode=":" d="M479 131q14 66 72.5 112t126 46t106.5 -45t25 -113t-72.5 -114t-126 -46t-106.5 46t-25 114zM627 825q14 66 72.5 112t126 46t106.5 -45t24.5 -112.5t-73 -113.5t-126 -46t-106 45.5t-24.5 113.5z" />
<glyph unicode=";" d="M426 -229l31 139q82 16 143 65q-55 4 -86 44t-18 98q14 70 70.5 114.5t125.5 44.5q74 0 110 -55t19 -131q-25 -119 -142.5 -203.5t-252.5 -115.5zM647 825q14 66 72.5 112t126 46t106.5 -45t25 -112.5t-72.5 -113.5t-126 -46t-106.5 45.5t-25 113.5z" />
<glyph unicode="&#x3c;" d="M311 737l805 738l86 -107l-682 -631l682 -631l-86 -106z" />
<glyph unicode="=" d="M195 549v135h1126v-135h-1126zM195 791v135h1126v-135h-1126z" />
<glyph unicode="&#x3e;" d="M311 106l682 631l-682 631l86 107l805 -738l-805 -737z" />
<glyph unicode="?" d="M477 1149q43 164 162 259t283 95q170 0 249.5 -98t42.5 -268q-20 -94 -64 -155.5t-126 -121.5q-39 -31 -87 -61.5t-63.5 -43t-31 -36t-23.5 -60.5l-45 -217h-153l45 217q18 90 64 142.5t177 136.5q70 45 105 90t51 115q23 104 -22.5 167.5t-147.5 63.5q-100 0 -170 -62.5 t-92 -162.5h-154zM483 131q14 66 72.5 112t126.5 46t106.5 -45t24.5 -113t-72.5 -114t-126 -46t-106.5 46t-25 114z" />
<glyph unicode="@" d="M113.5 321.5q-21.5 120.5 9.5 286.5q27 123 79 248t133 241.5t177 207t221 144.5t256 54q223 0 356.5 -180t75.5 -451q-25 -113 -79 -222t-152 -195t-213 -86q-63 0 -93 18.5t-69 71.5q-72 -49 -117 -69.5t-108 -20.5q-88 0 -131 55t-25 145q18 92 78.5 197.5 t136.5 173.5q121 109 379 109h92l-127 -336l-41 -115q-8 -41 5.5 -70.5t50.5 -29.5q92 0 161.5 121.5t94.5 238.5q25 139 8 233.5t-73 151.5t-117.5 82t-127.5 25q-104 0 -202.5 -47.5t-174 -122t-137 -172t-101.5 -196.5t-60 -196q-51 -242 32.5 -366.5t296.5 -124.5 q238 0 512 156l27 -138q-301 -172 -584 -172q-109 0 -200 37t-159.5 115t-90 198.5zM590 582q-6 -31 3 -57.5t38 -26.5q141 0 270 360l23 64q-115 -2 -211 -105.5t-123 -234.5z" />
<glyph unicode="A" d="M96 0l860 1597l183 -1597h-166l-39 434h-449l-223 -434h-166zM549 563h375l-62 596z" />
<glyph unicode="B" d="M221 0l314 1475h309q33 0 60.5 -1t65.5 -5.5t65.5 -12.5t62.5 -21.5t55.5 -33t45 -47t29.5 -63.5t10 -83q1 -11 1 -23q0 -38 -12 -83q-45 -209 -262 -318q119 -63 163 -153q27 -54 27 -125q0 -48 -12 -105q-35 -168 -173.5 -284.5t-326.5 -116.5h-422zM401 129h258 q113 0 207.5 67.5t120.5 196.5q9 40 9 76q0 84 -47 145q-67 88 -232 88h-193zM551 831h178q111 0 215.5 76t130.5 201q9 40 10 72q0 26 -8 47q-8 23 -15 40t-25.5 29.5t-30 21.5t-37 14t-36.5 8t-39 4.5t-35 1.5h-32h-165z" />
<glyph unicode="C" d="M336 729q25 111 54.5 207t83.5 204.5t121 184.5t168 127t220 51q154 0 237 -97q65 -77 65 -188q0 -30 -5 -63h-154q5 26 6 51q0 61 -34 106q-47 62 -140 62q-330 0 -471 -649q-38 -183 -38 -313q0 -312 223 -312q113 0 195.5 74t107.5 186h153q-49 -182 -178 -285.5 t-311 -103.5q-343 0 -343 421q0 144 40 337z" />
<glyph unicode="D" d="M229 0l314 1475h375q113 0 187.5 -34t124.5 -119q48 -82 48 -216v-11q-2 -142 -41 -358q-86 -408 -243.5 -572.5t-411.5 -164.5h-353zM410 129h188q92 0 152.5 18.5t125 79t114.5 185.5t93 325q35 164 40 280q1 28 2 52q0 79 -13 127q-16 63 -59 98t-86 43.5t-113 8.5 h-184z" />
<glyph unicode="E" d="M285 0l313 1475h766l-27 -129h-612l-113 -525h441l-27 -129h-440l-121 -563h627l-27 -129h-780z" />
<glyph unicode="F" d="M311 0l314 1475h790l-26 -129h-637l-109 -512h477l-28 -129h-478l-149 -705h-154z" />
<glyph unicode="G" d="M295 439q6 118 37 266q90 422 249.5 610t385.5 188q180 0 250 -111q46 -74 46 -181q0 -53 -12 -113h-153q16 53 15 99q0 51 -18 94q-36 83 -147 83q-88 0 -161.5 -49t-118.5 -113.5t-85 -164t-57.5 -166t-36.5 -154.5q-14 -68 -22 -119t-17 -133q-5 -43 -5 -80 q0 -33 4 -60q8 -58 26.5 -115.5t64.5 -88.5t115 -31q123 0 234.5 102.5t154.5 307.5l21 98h-348l28 129h502l-164 -766h-153l31 144q-150 -143 -340 -144q-35 0 -63 3t-73 18.5t-76.5 42t-63.5 82t-44 130.5q-8 50 -8 119q0 34 2 73z" />
<glyph unicode="H" d="M205 0l313 1475h154l-137 -646h512l137 646h153l-313 -1475h-154l150 700h-512l-150 -700h-153z" />
<glyph unicode="I" d="M338 0l27 129h198l260 1217h-198l26 129h553l-26 -129h-201l-260 -1217h201l-27 -129h-553z" />
<glyph unicode="J" d="M244 426l45 207h153l-57 -264q-11 -49 -11 -91q0 -65 28 -108q46 -70 159 -70q270 0 336 312l199 934h-273l27 129h426l-201 -949l-19 -89q-7 -32 -29.5 -99.5t-46.5 -108.5t-66 -95t-92 -86t-122.5 -54.5t-160.5 -22.5q-186 0 -267 112q-49 68 -48 180q0 73 20 163z" />
<glyph unicode="K" d="M264 0l314 1475h153l-137 -650q94 10 289.5 201t353.5 467l135 -80l-164 -203q-178 -221 -284.5 -316t-204.5 -151l479 -743h-205l-415 694h-13l-147 -694h-154z" />
<glyph unicode="L" d="M317 0l314 1475h153l-286 -1346h639l-27 -129h-793z" />
<glyph unicode="M" d="M156 0l313 1475h149l154 -736l465 736h152l-314 -1475h-153l237 1122h-4l-457 -723l-147 723l-4 -4l-238 -1118h-153z" />
<glyph unicode="N" d="M236 0l313 1475h178l215 -1102h6l234 1102h153l-315 -1489h-146l-231 1190l-4 -5l-250 -1171h-153z" />
<glyph unicode="O" d="M270 346v21q0 55 9 129q10 88 18 131t22 110q39 180 91.5 316.5t110 220.5t128 136t138 72.5t147.5 20.5q102 0 174 -35.5t105.5 -103.5t49.5 -139q10 -49 10 -109q0 -28 -2 -59q-7 -96 -17.5 -165t-28.5 -155l-18 -80q-5 -23 -23.5 -95.5t-33.5 -112t-45 -110.5 t-60.5 -114t-77.5 -97t-97.5 -84t-118 -51.5t-143.5 -21.5q-94 0 -160.5 33t-103.5 80t-54.5 124t-19.5 138zM430 309q27 -209 205 -209q63 0 117.5 26t114 91.5t111.5 196.5t93 323q48 230 48 358q0 19 -1 35q-16 244 -211 244q-307 0 -430 -616q-2 -14 -4 -21 q-47 -225 -47 -357q0 -40 4 -71z" />
<glyph unicode="P" d="M274 0l314 1475h354q201 0 286 -117q56 -76 55 -196q0 -63 -15 -138q-47 -225 -204 -334.5t-384 -109.5h-129l-123 -580h-154zM580 709h170q137 0 235 80.5t129 232.5q14 63 14 113q0 210 -233 211h-180z" />
<glyph unicode="Q" d="M268 341q0 71 2 113t15 112l16 93q4 23 16 78q47 223 115 379t151 238t167 115.5t184 33.5q341 0 341 -406q0 -143 -42 -335l-6 -25q-51 -231 -112.5 -378.5t-170.5 -247.5l131 -234h-188l-72 143q-98 -49 -207 -49q-76 0 -134 21.5t-96 52.5t-61.5 85t-36 97t-12.5 114z M471 737q-43 -199 -43 -336q0 -301 207 -301q145 0 254.5 146.5t183.5 490.5q41 188 44 320v23q0 114 -27 174q-31 67 -75 93.5t-108 26.5q-309 0 -436 -637z" />
<glyph unicode="R" d="M268 0l314 1475h383q104 0 174.5 -36t100.5 -85t41 -114q9 -51 9 -87q0 -10 -1 -19q-3 -42 -11 -77q-55 -258 -350 -408l260 -649h-187l-227 614q-37 -2 -111.5 -3t-111.5 -1l-129 -610h-154zM580 741h145q160 0 263.5 82t137.5 242q10 51 11 92q0 80 -39 123 q-59 66 -238 66h-151z" />
<glyph unicode="S" d="M217 211l139 94q37 -92 110 -148.5t173 -56.5q117 0 215 78t125 195q8 38 8 69q0 48 -19 80q-32 53 -192 166l-114 80q-115 80 -168 163q-35 55 -36 129q0 37 9 79q35 168 169 266t306 98q209 0 367 -184l-117 -111q-45 51 -78 81t-89 57.5t-116 27.5q-100 0 -183 -62.5 t-103 -162.5q-5 -24 -5 -47q0 -43 17 -81q27 -58 143 -140l103 -72q180 -127 231 -208q34 -53 34 -126q0 -38 -9 -82q-43 -197 -185.5 -309.5t-339.5 -112.5q-258 0 -395 240z" />
<glyph unicode="T" d="M410 1346l26 129h985l-26 -129h-420l-287 -1346h-153l286 1346h-411z" />
<glyph unicode="U" d="M289 261q-4 26 -4 55q0 68 20 153l213 1006h154l-232 -1088q-10 -49 -10 -90q0 -81 41 -127q61 -70 164 -70q133 0 212 85t107 221l228 1069h153l-231 -1088q-29 -133 -111 -230.5t-181 -141.5t-204 -44q-53 0 -101 12.5t-99.5 45t-79 89t-39.5 143.5z" />
<glyph unicode="V" d="M483 1475h168v-1252h4l531 1252h170l-649 -1489h-211z" />
<glyph unicode="W" d="M248 -14l192 1489h166l-166 -1151h4l390 739l75 -739h4l318 1151h166l-428 -1489h-176l-52 639l-323 -639h-170z" />
<glyph unicode="X" d="M178 0l518 745l-194 730h176l129 -572l371 572h178l-504 -732l201 -743h-179l-135 590l-385 -590h-176z" />
<glyph unicode="Y" d="M436 1475h170l144 -668l424 668h169l-557 -852l-133 -623h-153l133 623z" />
<glyph unicode="Z" d="M211 0l22 111l879 1235h-592l27 129h768l-23 -109l-870 -1237h655l-26 -129h-840z" />
<glyph unicode="[" d="M295 -229l373 1749h598l-29 -129h-444l-316 -1491h445l-29 -129h-598z" />
<glyph unicode="\" d="M229 1530h154l616 -1585h-153z" />
<glyph unicode="]" d="M236 -229l28 129h445l315 1491h-444l28 129h598l-372 -1749h-598z" />
<glyph unicode="^" d="M373 731l336 662h135l336 -662h-152l-252 496l-252 -496h-151z" />
<glyph unicode="_" d="M0 -154h1229v-102h-1229v102z" />
<glyph unicode="`" d="M645 1460l137 127l301 -291l-100 -100z" />
<glyph unicode="a" d="M276 336q35 166 155 280.5t280 114.5q98 0 217 -53l22 104q7 32 7 60q0 53 -25 90q-39 57 -125 57q-23 0 -49.5 -4t-47 -8t-52.5 -15l-46 -17l-51 -19l-47 -19l-6 135q209 76 332 76q152 0 221 -105q48 -73 48 -165q0 -40 -9 -84l-101 -475q-22 -109 -21 -205 q0 -48 5 -92l-147 -19l-11 138q-139 -133 -299 -134q-152 0 -217 104q-44 69 -43 159q-1 45 10 96zM428 328q-7 -32 -7 -62q0 -49 19 -92q31 -68 113 -68q55 0 114.5 34t90 62.5t90.5 92.5v4l53 250q-111 53 -199 53q-109 0 -179 -79.5t-95 -194.5z" />
<glyph unicode="b" d="M180 -2q88 158 139 408l238 1114h154l-99 -463q129 61 246 61q72 0 138.5 -28.5t125 -95t74.5 -174.5q6 -41 6 -89q0 -78 -16 -174q-33 -154 -98.5 -270.5t-146.5 -181t-161 -96.5t-157 -32q-88 0 -133.5 27t-108.5 98l-59 -122zM451 299q25 -90 67.5 -141.5t128.5 -51.5 q102 0 217 103.5t166 341.5q19 88 19 158q0 103 -40 169q-69 112 -202 111q-98 0 -227 -88z" />
<glyph unicode="c" d="M305 265q-6 39 -6 86q0 81 18 186q63 301 231.5 441t358.5 140q242 0 353 -244l-152 -88q-59 203 -227 203q-131 0 -245 -106.5t-163 -331.5q-20 -94 -20 -168q0 -108 44 -171q73 -105 199 -106q139 0 328 181l80 -109q-113 -100 -213 -150.5t-219 -50.5q-82 0 -154 27 t-134.5 90t-78.5 171z" />
<glyph unicode="d" d="M262 283q-4 33 -4 71q0 88 21 201q31 147 98 262t150 177.5t163 93t152 30.5q115 0 217 -63l100 465h154l-240 -1129q-35 -166 -35 -295q0 -54 6 -100l-149 -19l-8 123q-94 -72 -149.5 -97.5t-143.5 -25.5q-78 0 -143.5 30t-121 97.5t-67.5 178.5zM415 330 q7 -86 46 -135.5t80 -69t84 -19.5q156 0 274 189l127 604q-90 90 -186 90q-133 0 -249 -112.5t-161 -327.5q-17 -101 -17 -175q0 -23 2 -44z" />
<glyph unicode="e" d="M274 333q-2 24 -1 48q0 78 20 160q51 240 202.5 408.5t381.5 168.5q102 0 172.5 -44t100.5 -105.5t41 -141.5q8 -59 8 -103q0 -16 -1 -31q-4 -54 -12 -101l-17 -84h-729q-15 -81 -15 -145q0 -256 241 -257q154 0 366 117l37 -137q-264 -109 -442 -109q-117 0 -197 48.5 t-114 127.5t-42 180zM465 637h577q9 47 9 90q0 88 -36 158q-54 104 -177 104q-234 0 -373 -352z" />
<glyph unicode="f" d="M387 897l27 129h272l23 104q39 182 160.5 277.5t256.5 95.5q121 0 273 -76l-33 -155q-16 8 -73.5 39.5t-98.5 47t-84 15.5q-195 0 -244 -225l-26 -123h352l-27 -129h-352l-190 -897h-154l190 897h-272z" />
<glyph unicode="g" d="M207 -166l129 94q72 -133 229 -133q115 0 194 88t105 215l19 86q-160 -92 -281 -92q-127 0 -206 75t-93 185q-6 46 -6 93q0 68 12 141q47 219 183.5 375.5t347.5 156.5q135 0 247 -96l50 96h145q-78 -158 -133 -409l-129 -603q-20 -98 -65.5 -177t-97.5 -127 t-115.5 -79.5t-118 -44t-105.5 -12.5q-94 0 -177 47t-134 121zM467 604q-15 -69 -15 -128q0 -81 27 -144q47 -111 158 -111q72 0 154.5 42t130.5 102l104 489q-27 57 -85 96t-126 39q-94 0 -171 -63.5t-118 -145.5t-59 -176z" />
<glyph unicode="h" d="M242 0l323 1520h154l-125 -582q174 180 369 180q47 0 78.5 -7t66.5 -35.5t49 -80.5q13 -45 13 -121q0 -11 -1 -23q-2 -93 -28 -222l-133 -629h-154l137 641q25 119 25 198q0 150 -90 150q-80 0 -166 -59.5t-142 -138.5q-41 -57 -68.5 -130t-37.5 -114t-31 -139l-86 -408 h-153z" />
<glyph unicode="i" d="M459 967l28 129h465l-233 -1096h-154l205 967h-311zM801 1374q10 55 55 92t100 37q53 0 83 -37q22 -27 22 -65q0 -13 -2 -27q-12 -55 -58.5 -92t-99.5 -37t-83 37q-21 26 -21 61q0 15 4 31z" />
<glyph unicode="j" d="M172 106h154q-21 -87 -21 -149q0 -47 11 -82q28 -80 137 -80q45 0 86 19.5t66.5 46t46 57.5t28.5 49.5t10 24.5l207 975h-317l28 129h471l-229 -1073q-35 -168 -164 -262.5t-260 -94.5q-172 0 -236 118q-37 69 -37 167q0 70 19 155zM920 1374q10 55 56 92t101 37 q53 0 82 -37q21 -27 21 -64q0 -13 -2 -28q-12 -55 -57.5 -92t-98.5 -37q-55 0 -85 37q-21 26 -21 61q0 15 4 31z" />
<glyph unicode="k" d="M287 0l323 1520h154l-193 -904q362 307 514 480h195l-172 -162l-139 -132l-107 -95l-131 -113l412 -594h-203l-324 504l-84 -70l-92 -434h-153z" />
<glyph unicode="l" d="M532 1391l29 129h465l-324 -1520h-153l295 1391h-312z" />
<glyph unicode="m" d="M139 0l160 756q33 160 33 362h153l2 -98q133 98 236 98q72 0 101.5 -19.5t64.5 -80.5q135 102 231 102q111 0 162 -66q36 -46 36 -114q0 -30 -7 -63l-187 -877h-153l186 877q5 21 5 37q0 29 -13 48q-20 30 -68 29q-96 0 -186 -114l-186 -877h-154l184 864q6 30 7 52 q0 73 -66 73q-53 0 -111.5 -40t-93.5 -93l-182 -856h-154z" />
<glyph unicode="n" d="M227 0l117 551q68 324 68 522v23h147l-8 -201q80 100 193.5 161.5t226.5 61.5q125 0 173 -99q29 -61 29 -139q0 -50 -12 -108l-164 -772h-153l153 727q12 55 17 87q3 25 3 61v19q-1 48 -25.5 71.5t-71.5 23.5q-127 0 -256 -134t-187 -398l-96 -457h-154z" />
<glyph unicode="o" d="M294 271q-3 31 -3 67q0 90 20 209q33 152 94.5 266.5t139.5 179t158.5 95t162.5 30.5q111 0 184.5 -43t105.5 -105.5t41 -146.5q6 -54 6 -99q0 -25 -2 -48q-5 -63 -19 -129q-33 -152 -94.5 -266.5t-139.5 -178t-158.5 -94.5t-164.5 -31q-78 0 -142.5 27t-121 92 t-67.5 175zM465 547q-24 -112 -25 -195q0 -245 211 -246q281 0 377 441q23 109 23 192q0 251 -211 250q-283 0 -375 -442z" />
<glyph unicode="p" d="M143 -420l238 1112q40 181 40 317q0 50 -5 95l147 18l6 -127q96 72 151.5 97.5t143.5 25.5q78 0 144.5 -29.5t122 -97t67.5 -178.5q4 -33 4 -71q0 -88 -20 -201q-31 -147 -99.5 -262t-151.5 -177.5t-163 -93.5t-152 -31q-113 0 -221 64l-98 -461h-154zM428 197 q94 -90 190 -91q139 0 253 117t159 324q17 103 17 177q0 24 -1 44q-7 86 -47.5 135t-80 67.5t-82.5 18.5q-150 0 -279 -190z" />
<glyph unicode="q" d="M261 276q-7 41 -6 89q0 79 17 176q33 154 98.5 270.5t146.5 181t161 95t158 30.5q88 0 133 -26.5t108 -96.5l60 127l143 -18q-92 -164 -141 -399l-240 -1125h-154l99 461q-131 -63 -244 -64q-72 0 -138.5 30t-125 95t-75.5 174zM428 547q-19 -85 -18 -155q0 -100 37 -169 q65 -117 204 -117q98 0 226 91l131 612q-29 88 -71 134t-124 46q-104 0 -219 -102t-166 -340z" />
<glyph unicode="r" d="M322 0l133 629q53 250 57 467h150l-11 -209q96 113 186.5 172t202.5 59q96 0 145 -58q47 -57 47 -136q0 -78 -15 -172h-154q2 6 8 37.5t7 46t4 43t-1 44t-11 33t-23.5 25.5t-40.5 8q-104 0 -243.5 -143.5t-191.5 -388.5l-96 -457h-153z" />
<glyph unicode="s" d="M225 168l111 123q55 -76 141 -130.5t176 -54.5q82 0 145.5 44.5t80.5 123.5q6 28 5 53q0 19 -3 35q-8 37 -44 64t-58.5 39t-78.5 35q-70 29 -110.5 50t-88.5 61t-65 95q-9 29 -9 62q0 29 7 61q27 121 142.5 205t257.5 84q178 0 327 -127l-94 -125q-147 123 -266 123 q-72 0 -135.5 -47t-79.5 -119q-3 -13 -3 -24q0 -97 175 -166q76 -31 119 -53.5t93 -63.5t65 -99q7 -28 8 -61q0 -35 -9 -75q-29 -131 -146.5 -217.5t-250.5 -86.5q-240 1 -412 191z" />
<glyph unicode="t" d="M371 967l28 129h236l72 336h153l-72 -336h392l-29 -129h-391l-133 -625q-10 -53 -15 -84q-2 -15 -2 -33t2 -39q4 -41 31 -60.5t76 -19.5q145 0 272 193l139 -37q-193 -285 -442 -285q-145 0 -199 92q-28 47 -27 132q0 79 23 190l121 576h-235z" />
<glyph unicode="u" d="M305 334l162 762h154l-154 -717q-12 -53 -16 -88q-3 -28 -4 -65v-19q1 -49 26 -75t72 -26q127 0 257 141.5t185 399.5l96 449h154l-113 -531q-74 -344 -74 -544q0 -11 1 -21h-146l10 211q-78 -96 -193.5 -165t-215.5 -69q-137 0 -185 102q-29 60 -29 139q0 54 13 116z " />
<glyph unicode="v" d="M418 1096h160l86 -850l448 850h160l-576 -1110h-174z" />
<glyph unicode="w" d="M262 -14l43 1110h172l-51 -822h4l277 553h149l39 -553h4l301 822h172l-428 -1110h-164l-53 594l-301 -594h-164z" />
<glyph unicode="x" d="M98 0l555 586l-239 510h178l174 -385l332 385h174l-449 -504l307 -592h-194l-223 473l-420 -473h-195z" />
<glyph unicode="y" d="M10 -96l144 67q27 -176 112 -176q39 0 84 37t66 67l55 81l107 165l-150 951h166l106 -746l445 746h164l-625 -1028q-51 -84 -85 -133.5t-95.5 -122t-128 -109.5t-137.5 -37q-100 0 -159 67t-69 171z" />
<glyph unicode="z" d="M188 0l25 113l813 854h-543l29 129h737l-24 -115l-811 -852h653l-27 -129h-852z" />
<glyph unicode="{" d="M416 662q27 8 74 19t73.5 19.5t58 25.5t50 49t28.5 79l74 346q37 174 130 247t306 73h113l-12 -58h-68q-262 0 -301 -188l-78 -369q-12 -55 -18 -76.5t-22.5 -59.5t-44 -62.5t-68.5 -44.5q61 -37 68 -102.5t-17 -139.5l-80 -369q-20 -90 30 -139t191 -49h68l-13 -58h-112 q-213 0 -275.5 73t-25.5 247l73 346q2 37 5.5 60.5t-10 43t-24.5 29.5t-35 18.5t-42 13.5l-47 12.5t-49 13.5z" />
<glyph unicode="|" d="M690 -590v2212h135v-2212h-135z" />
<glyph unicode="}" d="M193 -195l12 58h67q258 0 299 188l80 369q12 55 18.5 76.5t23 59.5t44 61.5t68.5 44.5q-61 39 -68.5 104t17.5 139l77 369q18 90 -29.5 139t-189.5 49h-67l12 58h113q211 0 274.5 -73t26.5 -247l-74 -346q-2 -37 -5 -60.5t10 -43t24.5 -29.5t35 -19.5t42 -13.5t47 -11 t49.5 -15q-27 -8 -75 -18.5t-73.5 -19t-57.5 -25.5t-50.5 -49t-28.5 -79l-74 -346q-37 -174 -130 -247t-306 -73h-112z" />
<glyph unicode="~" d="M180 616q37 63 63.5 101.5t68.5 83.5t93.5 66.5t112.5 21.5q88 0 260 -76t219 -76q72 0 133.5 61.5t96.5 139.5l106 -78q-55 -106 -142 -182t-192 -76q-23 0 -52 6t-66 18.5t-61 21.5l-64 26l-51 20q-141 59 -187 60q-35 0 -63.5 -11.5t-55.5 -42.5l-40 -47 q-13 -16 -40.5 -62t-31.5 -54z" />
<glyph unicode="&#xa0;" />
<glyph unicode="&#xa1;" d="M514 0l246 1026h137l-182 -1026h-201zM735 1346q14 66 72.5 111.5t126 45.5t106.5 -45t25 -112.5t-72.5 -113.5t-126 -46t-106.5 46t-25 114z" />
<glyph unicode="&#xa2;" d="M362 754q104 489 508 573l41 193h154l-41 -191q106 -23 167.5 -77t117.5 -160l-158 -93q-18 55 -33.5 87t-46.5 64t-76 46l-184 -864q115 33 258 172l82 -109q-197 -168 -367 -194l-55 -262h-154l56 260q-188 41 -251 190.5t-18 364.5zM520 768q-78 -356 139 -432 l183 858q-246 -68 -322 -426z" />
<glyph unicode="&#xa3;" d="M281 76q35 49 104.5 134t103 140.5t48.5 116.5q23 111 10 283h-238l27 129h201q-16 152 4 243q33 158 171 255.5t300 97.5q127 0 219 -70t112 -184l-153 -47q-49 172 -209 172q-96 0 -186 -68q-80 -63 -103 -172q-14 -61 -2 -227h410l-27 -129h-371q0 -16 2.5 -64.5 t2.5 -73t-2.5 -63.5t-10.5 -72q-12 -55 -41.5 -113.5t-51 -89t-79.5 -106.5q100 18 135 18q68 0 146 -39q57 -29 110 -28q16 0 34 5t40.5 17.5t31.5 18.5l37 25q28 19 29 22l68 -98q-133 -119 -254 -119q-59 0 -147 35q-80 33 -142 32q-94 0 -270 -86z" />
<glyph unicode="&#xa4;" d="M195 219l223 219q-102 139 -102.5 299t102.5 299l-223 219l67 66l221 -219q131 106 303 106t304 -106l221 219l67 -66l-223 -219q102 -139 102 -298.5t-102 -299.5l223 -219l-67 -65l-221 219q-131 -106 -303.5 -106.5t-303.5 106.5l-221 -219zM395 737 q0 -166 113 -278.5t278.5 -112.5t278.5 112.5t113 278.5t-113 279.5t-278.5 113.5t-278.5 -113.5t-113 -279.5z" />
<glyph unicode="&#xa5;" d="M360 463l27 129h238l8 31l-197 852h176l140 -666l415 666h176l-557 -852l-8 -31h244l-27 -129h-243l-99 -463h-153l98 463h-238z" />
<glyph unicode="&#xa6;" d="M690 -358v716h135v-716h-135zM690 666v716h135v-716h-135z" />
<glyph unicode="&#xa7;" d="M338 262h147q-63 -229 138 -229q72 0 131 35.5t73 105.5q10 20 3 47l-10 39t-20.5 32.5t-27.5 30.5l-32 27q-22 18 -31 29l-99 90q-12 12 -63 55t-73.5 66.5t-54.5 65.5t-41 85t1 90q14 72 62 122.5t132 101.5q-2 4 -7 17t-7 17.5l-7 16.5t-6 17t-4 16.5t-3 18.5v18 q0 10 1 20t3 21q29 137 136 211.5t247 74.5q156 0 238.5 -89t25.5 -269h-150q63 229 -135 229q-72 0 -131 -35.5t-74 -103.5q-8 -16 -3 -36.5t4 -32t10.5 -28t16.5 -24.5t19.5 -23.5t22.5 -21.5t23.5 -20.5t23.5 -20.5l101 -90q8 -8 62 -54t73.5 -66.5t53.5 -64.5t42 -87 t-2 -91q-16 -74 -63.5 -123t-131.5 -100q2 -6 8.5 -19.5l9.5 -19.5t7 -18t6 -19.5t4 -18.5t2 -21.5t-1 -21.5t-3 -24q-29 -135 -137.5 -210.5t-247.5 -75.5q-156 0 -236.5 90t-25.5 268zM535 842q-12 -61 47 -127l299 -277q90 37 110 127q12 61 -45 127l-299 279 q-92 -39 -112 -129z" />
<glyph unicode="&#xa8;" d="M583.5 1388.5q12.5 57.5 62.5 97.5t107.5 40t91.5 -40t21.5 -97.5t-62.5 -97.5t-107.5 -40t-91.5 40t-21.5 97.5zM950.5 1388.5q12.5 57.5 62.5 97.5t107.5 40t91 -40t21.5 -97.5t-62.5 -97.5t-107.5 -40t-91 40t-21.5 97.5z" />
<glyph unicode="&#xa9;" d="M177 351q-38 171 1 386q66 317 287 541.5t469 224.5q246 0 372 -224t60 -542q-68 -317 -290 -541.5t-468 -224.5q-162 0 -277.5 104.5t-153.5 275.5zM332 737q-53 -254 36 -433t273 -179q170 0 344 180t227 432q61 295 -41 454t-270 159q-174 0 -344 -174.5t-225 -438.5z M469 743q43 197 156.5 320t263.5 123q109 0 169 -78t48 -209h-141q6 68 -24 106.5t-85 38.5q-90 0 -153.5 -86t-90.5 -210q-27 -119 3 -214.5t116 -95.5q53 0 103.5 47t66.5 115h141q-39 -137 -135 -220t-205 -83q-145 0 -208.5 129t-24.5 317z" />
<glyph unicode="&#xaa;" d="M449 532l26 121h535l-27 -121h-534zM559 1032q25 113 110 179.5t197 66.5q45 0 103 -14q14 47 -2.5 82.5t-63.5 35.5q-29 0 -63.5 -10t-80.5 -28.5t-69 -24.5l8 145q164 39 234 39q111 0 151.5 -74.5t14.5 -197.5l-49 -234q-20 -109 -11 -192l-129 -17l-8 64 q-94 -59 -172 -59q-104 0 -148.5 67.5t-21.5 171.5zM692 1022q-8 -43 8.5 -76t57.5 -33q66 0 157 101l27 121q-59 23 -104 22q-57 0 -94.5 -38t-51.5 -97z" />
<glyph unicode="&#xab;" d="M195 729l671 531l76 -99l-551 -432l367 -432l-119 -102zM690 729l672 531l76 -99l-551 -432l366 -432l-116 -102z" />
<glyph unicode="&#xac;" d="M195 791v135h1126v-596h-143v461h-983z" />
<glyph unicode="&#xad;" d="M492 670l26 129h533l-27 -129h-532z" />
<glyph unicode="&#xae;" d="M178.5 737.5q67.5 317.5 287.5 541.5t468 224q246 0 373 -224t59 -541.5t-290 -542t-468 -224.5q-248 0 -372.5 224.5t-57 542zM332 737q-53 -254 43 -433t266 -179q63 0 141 34t163 100.5t159 192.5t108 285q55 264 -43 438.5t-268 174.5t-340 -170.5t-229 -442.5z M436 322l176 825h312q135 0 180 -57.5t16 -194.5q-25 -111 -79 -162t-144 -61l80 -350h-146l-67 350h-123l-76 -350h-129zM666 793h184q59 0 95 26.5t50 98.5q8 39 0 62.5t-33.5 32.5t-43 11t-50.5 2h-153z" />
<glyph unicode="&#xaf;" d="M561 1249l27 129h637l-27 -129h-637z" />
<glyph unicode="&#xb0;" d="M322 1139q0 180 129 304t307 124q180 0 308 -124t128 -304q0 -178 -128 -302t-308 -124q-178 0 -307 124t-129 302zM485 1138.5q0 -112.5 80 -191.5t192.5 -79t192.5 79t80 191.5t-80 192.5t-192.5 80t-192.5 -80t-80 -192.5z" />
<glyph unicode="&#xb1;" d="M195 80v135h1126v-135h-1126zM195 774v135h491v486h143v-486h492v-135h-492v-485h-143v485h-491z" />
<glyph unicode="&#xb2;" d="M231 717l11 45q27 117 88 188.5t182 157.5q41 29 59 43l56 44q37 30 56 58.5t26 57.5q10 49 -10.5 77.5t-69.5 28.5q-63 0 -103.5 -45t-56.5 -110h-104q27 106 101.5 173.5t180.5 67.5q94 0 139 -52t25 -142q-14 -72 -81.5 -139.5t-141.5 -112.5t-144.5 -114t-91.5 -140 h353l-19 -86h-455z" />
<glyph unicode="&#xb3;" d="M227 858l105 53q16 -63 43.5 -93t91 -30t112 39t60.5 101q18 84 -23 119.5t-145 37.5l18 86q66 -4 124.5 32t70.5 102q10 49 -18.5 80.5t-77.5 31.5q-90 0 -166 -112l-76 49q47 68 116.5 108.5t143.5 40.5q94 0 147.5 -57t32.5 -150q-23 -102 -127 -159q113 -57 84 -199 q-23 -104 -105.5 -170t-188.5 -66q-88 0 -137.5 38t-84.5 118z" />
<glyph unicode="&#xb4;" d="M676 1296l424 291l84 -127l-453 -264z" />
<glyph unicode="&#xb5;" d="M137 -471l334 1567h154l-136 -637q-41 -195 7.5 -274t134.5 -79q88 0 176 80t133 287l133 623h154l-234 -1096h-153l20 92q-109 -115 -246 -115q-147 0 -204 107l-119 -555h-154z" />
<glyph unicode="&#xb6;" d="M326 1065q16 78 54 145.5t105.5 129t180 98.5t256.5 37h534l-26 -129h-95l-334 -1569h-153l334 1569h-199l-334 -1569h-153l186 882q-186 -6 -290.5 108t-65.5 298z" />
<glyph unicode="&#xb7;" d="M451 737.5q0 65.5 49 114.5t114.5 49t114.5 -49t49 -114.5t-49 -115t-114.5 -49.5t-114.5 49.5t-49 115z" />
<glyph unicode="&#xb8;" d="M348 -328l70 113q86 -43 151 -43q72 0 82 45q6 29 -22.5 39t-114.5 18q-27 2 -41 4l131 230h131l-78 -141q76 -4 119 -44t27 -114q-16 -76 -89 -121t-153 -45q-94 0 -213 59z" />
<glyph unicode="&#xb9;" d="M266 709l17 86h143l129 600l-160 -45l21 92l268 78l-156 -725h140l-17 -86h-385z" />
<glyph unicode="&#xba;" d="M461 532l26 121h535l-27 -121h-534zM565 1147q33 156 128 256t241 100q137 0 194.5 -98t22.5 -256q-33 -156 -128 -256t-241 -100q-135 0 -193.5 96t-23.5 258zM690 1041.5q-2 -52.5 29 -90.5t90 -38q156 0 207 234q8 55 10 107.5t-28.5 90t-90.5 37.5q-156 0 -207 -235 q-8 -53 -10 -105.5z" />
<glyph unicode="&#xbb;" d="M102 297l551 432l-366 432l116 99l447 -531l-674 -534zM598 297l551 432l-367 432l117 99l449 -531l-676 -534z" />
<glyph unicode="&#xbc;" d="M266 709l17 86h143l129 600l-160 -45l21 92l268 78l-156 -725h140l-17 -86h-385zM276 0l986 1475h118l-989 -1475h-115zM696 195l15 63l399 528h121l-109 -505h111l-19 -86h-110l-41 -195h-102l40 195h-305zM836 281h184l74 344h-4z" />
<glyph unicode="&#xbd;" d="M242 0l985 1475h119l-990 -1475h-114zM266 709l17 86h143l129 600l-160 -45l21 92l268 78l-156 -725h140l-17 -86h-385zM698 0l11 45q27 117 88 189.5t182 156.5q2 2 22.5 16.5t26.5 19.5t26.5 19.5t29 22.5l24.5 22.5t25 25.5l18 25q10 13 16.5 26.5t8.5 25.5 q10 49 -10.5 77.5t-69.5 28.5q-63 0 -103.5 -45t-56.5 -110h-105q27 106 102 173.5t181 67.5q94 0 138 -51t24 -143q-14 -72 -82 -139.5t-141.5 -112.5t-144 -113.5t-89.5 -140.5h352l-18 -86h-455z" />
<glyph unicode="&#xbe;" d="M227 858l105 53q16 -63 43.5 -93t91 -30t112 39t60.5 101q18 84 -23 119.5t-145 37.5l18 86q66 -4 124.5 32t70.5 102q10 49 -18.5 80.5t-77.5 31.5q-90 0 -166 -112l-76 49q47 68 116.5 108.5t143.5 40.5q94 0 147.5 -57t32.5 -150q-23 -102 -127 -159q113 -57 84 -199 q-23 -104 -105.5 -170t-188.5 -66q-88 0 -137.5 38t-84.5 118zM270 0l985 1475h119l-989 -1475h-115zM696 195l15 63l399 528h121l-109 -505h111l-19 -86h-110l-41 -195h-102l40 195h-305zM836 281h184l74 344h-4z" />
<glyph unicode="&#xbf;" d="M330 338q20 94 64 155.5t126 120.5q39 31 87 62t63.5 43t31 35.5t23.5 60.5l45 217h154l-45 -217q-18 -90 -64.5 -142t-177.5 -136q-70 -45 -104.5 -90.5t-51.5 -114.5q-23 -104 22.5 -168t147.5 -64q100 0 170 62.5t92 163.5h154q-43 -164 -162 -259.5t-282 -95.5 q-170 0 -250 98.5t-43 268.5zM733 1346q14 66 72.5 111.5t126 45.5t106.5 -45t25 -112.5t-72.5 -113.5t-126 -46t-106.5 46t-25 114z" />
<glyph unicode="&#xc0;" d="M96 0l860 1597l183 -1597h-166l-39 434h-449l-223 -434h-166zM549 563h375l-62 596zM696 1839l138 127l301 -291l-101 -100z" />
<glyph unicode="&#xc1;" d="M96 0l860 1597l183 -1597h-166l-39 434h-449l-223 -434h-166zM549 563h375l-62 596zM737 1675l424 291l84 -127l-452 -264z" />
<glyph unicode="&#xc2;" d="M96 0l860 1597l183 -1597h-166l-39 434h-449l-223 -434h-166zM549 563h375l-62 596zM602 1657l432 313l301 -313l-100 -88l-242 211l-329 -211z" />
<glyph unicode="&#xc3;" d="M96 0l860 1597l183 -1597h-166l-39 434h-449l-223 -434h-166zM532 1669q70 104 141.5 163.5t166.5 59.5q33 0 64.5 -11t47 -20.5l52.5 -33.5q4 -2 24.5 -16.5t32.5 -21.5t30.5 -15.5t32.5 -8.5q31 0 60.5 21.5t44 40t37.5 55.5l114 -51q-47 -84 -120.5 -139.5 t-157.5 -55.5q-76 0 -166 64q-84 63 -127 63q-70 0 -160 -139zM549 563h375l-62 596z" />
<glyph unicode="&#xc4;" d="M96 0l860 1597l183 -1597h-166l-39 434h-449l-223 -434h-166zM549 563h375l-62 596zM645 1767.5q12 57.5 62.5 97.5t107.5 40t91 -40t21.5 -97.5t-62.5 -97.5t-107.5 -40t-91 40t-21.5 97.5zM1011.5 1767.5q12.5 57.5 62.5 97.5t107.5 40t91.5 -40t21.5 -97.5 t-62.5 -97.5t-107.5 -40t-91.5 40t-21.5 97.5z" />
<glyph unicode="&#xc5;" d="M96 0l860 1597l183 -1597h-166l-39 434h-449l-223 -434h-166zM549 563h375l-62 596zM807 1798q16 80 87 137.5t148.5 57.5t121.5 -57.5t28 -137.5t-86 -137t-147.5 -57t-122.5 57t-29 137zM936 1798q-4 -27 10.5 -46t41 -19t49 19.5t26.5 45.5q6 27 -8.5 46.5t-41 19.5 t-49 -19.5t-28.5 -46.5z" />
<glyph unicode="&#xc6;" d="M41 0l721 1475h676l-27 -129h-416l-110 -519h282l-28 -129h-283l-121 -569h432l-26 -129h-586l94 440h-237l-211 -440h-160zM473 569h203l166 777h-4z" />
<glyph unicode="&#xc7;" d="M336 729q23 109 53.5 206t84.5 205.5t121 184.5t168 127t220 51q154 0 237 -97t60 -251h-154q18 94 -28.5 156.5t-139.5 62.5q-330 0 -471 -649q-131 -625 185 -625q113 0 195.5 74t107.5 186h153q-47 -172 -164.5 -274t-285.5 -111l-21 -38q76 -4 119 -44t27 -114 q-16 -76 -89 -121t-153 -45q-94 0 -213 59l70 113q86 -43 151 -43q72 0 82 45q6 29 -22.5 39t-114.5 18q-27 2 -41 4l76 134q-358 73 -213 747z" />
<glyph unicode="&#xc8;" d="M285 0l313 1475h766l-27 -129h-612l-113 -525h441l-27 -129h-440l-121 -563h627l-27 -129h-780zM707 1839l137 127l301 -291l-101 -100z" />
<glyph unicode="&#xc9;" d="M285 0l313 1475h766l-27 -129h-612l-113 -525h441l-27 -129h-440l-121 -563h627l-27 -129h-780zM737 1675l424 291l84 -127l-452 -264z" />
<glyph unicode="&#xca;" d="M285 0l313 1475h766l-27 -129h-612l-113 -525h441l-27 -129h-440l-121 -563h627l-27 -129h-780zM582 1657l432 313l301 -313l-101 -88l-241 211l-330 -211z" />
<glyph unicode="&#xcb;" d="M285 0l313 1475h766l-27 -129h-612l-113 -525h441l-27 -129h-440l-121 -563h627l-27 -129h-780zM676 1767.5q12 57.5 62 97.5t107.5 40t91.5 -40t21.5 -97.5t-62.5 -97.5t-107.5 -40t-91 40t-21.5 97.5zM1042.5 1767.5q12.5 57.5 62.5 97.5t107.5 40t91 -40t21.5 -97.5 t-62.5 -97.5t-107.5 -40t-91 40t-21.5 97.5z" />
<glyph unicode="&#xcc;" d="M338 0l27 129h198l260 1217h-198l26 129h553l-26 -129h-201l-260 -1217h201l-27 -129h-553zM696 1839l138 127l301 -291l-101 -100z" />
<glyph unicode="&#xcd;" d="M338 0l27 129h198l260 1217h-198l26 129h553l-26 -129h-201l-260 -1217h201l-27 -129h-553zM737 1675l424 291l84 -127l-452 -264z" />
<glyph unicode="&#xce;" d="M338 0l27 129h198l260 1217h-198l26 129h553l-26 -129h-201l-260 -1217h201l-27 -129h-553zM602 1657l432 313l301 -313l-100 -88l-242 211l-329 -211z" />
<glyph unicode="&#xcf;" d="M338 0l27 129h198l260 1217h-198l26 129h553l-26 -129h-201l-260 -1217h201l-27 -129h-553zM645 1767.5q12 57.5 62.5 97.5t107.5 40t91 -40t21.5 -97.5t-62.5 -97.5t-107.5 -40t-91 40t-21.5 97.5zM1011.5 1767.5q12.5 57.5 62.5 97.5t107.5 40t91.5 -40t21.5 -97.5 t-62.5 -97.5t-107.5 -40t-91.5 40t-21.5 97.5z" />
<glyph unicode="&#xd0;" d="M180 700l29 129h194l140 646h375q113 0 187.5 -34t124.5 -119t48 -227.5t-41 -357.5q-86 -408 -243.5 -572.5t-411.5 -164.5h-353l152 700h-201zM410 129h188q92 0 152.5 18.5t125 79t114.5 185.5t93 325q35 164 40 280t-11 179.5t-59 98t-86 43t-113 8.5h-184l-111 -517 h275l-29 -129h-273z" />
<glyph unicode="&#xd1;" d="M236 0l313 1475h178l215 -1102h6l234 1102h153l-315 -1489h-146l-231 1190l-4 -5l-250 -1171h-153zM532 1669q70 104 141.5 163.5t166.5 59.5q33 0 64.5 -11t47 -20.5l52.5 -33.5q4 -2 24.5 -16.5t32.5 -21.5t30.5 -15.5t32.5 -8.5q31 0 60.5 21.5t44 40t37.5 55.5 l114 -51q-47 -84 -120.5 -139.5t-157.5 -55.5q-76 0 -166 64q-84 63 -127 63q-70 0 -160 -139z" />
<glyph unicode="&#xd2;" d="M270 346.5q-2 61.5 8.5 149.5t18.5 131t22 110q39 180 91.5 316.5t110 220.5t128 136t138 72.5t147.5 20.5q102 0 174 -35.5t105.5 -103.5t49 -139.5t8.5 -167.5t-17.5 -165t-28.5 -155l-18 -80q-5 -23 -23.5 -95.5t-33.5 -112t-45 -110.5t-60.5 -114t-77.5 -97 t-97.5 -84t-118 -51.5t-143.5 -21.5q-94 0 -160.5 33t-103.5 80t-54.5 124t-19.5 138.5zM430 309q27 -209 205 -209q63 0 117.5 26t114 91.5t111.5 196.5t93 323q55 264 47 393q-16 244 -211 244q-307 0 -430 -616q-2 -14 -4 -21q-61 -293 -43 -428zM696 1839l138 127 l301 -291l-101 -100z" />
<glyph unicode="&#xd3;" d="M270 346.5q-2 61.5 8.5 149.5t18.5 131t22 110q39 180 91.5 316.5t110 220.5t128 136t138 72.5t147.5 20.5q102 0 174 -35.5t105.5 -103.5t49 -139.5t8.5 -167.5t-17.5 -165t-28.5 -155l-18 -80q-5 -23 -23.5 -95.5t-33.5 -112t-45 -110.5t-60.5 -114t-77.5 -97 t-97.5 -84t-118 -51.5t-143.5 -21.5q-94 0 -160.5 33t-103.5 80t-54.5 124t-19.5 138.5zM430 309q27 -209 205 -209q63 0 117.5 26t114 91.5t111.5 196.5t93 323q55 264 47 393q-16 244 -211 244q-307 0 -430 -616q-2 -14 -4 -21q-61 -293 -43 -428zM737 1675l424 291 l84 -127l-452 -264z" />
<glyph unicode="&#xd4;" d="M270 346.5q-2 61.5 8.5 149.5t18.5 131t22 110q39 180 91.5 316.5t110 220.5t128 136t138 72.5t147.5 20.5q102 0 174 -35.5t105.5 -103.5t49 -139.5t8.5 -167.5t-17.5 -165t-28.5 -155l-18 -80q-5 -23 -23.5 -95.5t-33.5 -112t-45 -110.5t-60.5 -114t-77.5 -97 t-97.5 -84t-118 -51.5t-143.5 -21.5q-94 0 -160.5 33t-103.5 80t-54.5 124t-19.5 138.5zM430 309q27 -209 205 -209q63 0 117.5 26t114 91.5t111.5 196.5t93 323q55 264 47 393q-16 244 -211 244q-307 0 -430 -616q-2 -14 -4 -21q-61 -293 -43 -428zM582 1657l432 313 l301 -313l-101 -88l-241 211l-330 -211z" />
<glyph unicode="&#xd5;" d="M270 346.5q-2 61.5 8.5 149.5t18.5 131t22 110q39 180 91.5 316.5t110 220.5t128 136t138 72.5t147.5 20.5q102 0 174 -35.5t105.5 -103.5t49 -139.5t8.5 -167.5t-17.5 -165t-28.5 -155l-18 -80q-5 -23 -23.5 -95.5t-33.5 -112t-45 -110.5t-60.5 -114t-77.5 -97 t-97.5 -84t-118 -51.5t-143.5 -21.5q-94 0 -160.5 33t-103.5 80t-54.5 124t-19.5 138.5zM430 309q27 -209 205 -209q63 0 117.5 26t114 91.5t111.5 196.5t93 323q55 264 47 393q-16 244 -211 244q-307 0 -430 -616q-2 -14 -4 -21q-61 -293 -43 -428zM522 1669 q70 104 141.5 163.5t165.5 59.5q33 0 65 -11t47 -20.5l52 -33.5q4 -2 24.5 -16.5t33 -21.5t31 -15.5t32.5 -8.5q31 0 60.5 21.5t44 40t36.5 55.5l115 -51q-47 -84 -120.5 -139.5t-157.5 -55.5q-76 0 -166 64q-84 63 -127 63q-70 0 -160 -139z" />
<glyph unicode="&#xd6;" d="M270 346.5q-2 61.5 8.5 149.5t18.5 131t22 110q39 180 91.5 316.5t110 220.5t128 136t138 72.5t147.5 20.5q102 0 174 -35.5t105.5 -103.5t49 -139.5t8.5 -167.5t-17.5 -165t-28.5 -155l-18 -80q-5 -23 -23.5 -95.5t-33.5 -112t-45 -110.5t-60.5 -114t-77.5 -97 t-97.5 -84t-118 -51.5t-143.5 -21.5q-94 0 -160.5 33t-103.5 80t-54.5 124t-19.5 138.5zM430 309q27 -209 205 -209q63 0 117.5 26t114 91.5t111.5 196.5t93 323q55 264 47 393q-16 244 -211 244q-307 0 -430 -616q-2 -14 -4 -21q-61 -293 -43 -428zM635 1767.5 q12 57.5 62.5 97.5t107.5 40t91 -40t21.5 -97.5t-62.5 -97.5t-107.5 -40t-91 40t-21.5 97.5zM1001.5 1767.5q12.5 57.5 62.5 97.5t107.5 40t91 -40t21.5 -97.5t-62.5 -97.5t-107.5 -40t-91 40t-21.5 97.5z" />
<glyph unicode="&#xd7;" d="M195 270l467 467l-467 467l98 99l465 -467l465 467l98 -99l-467 -467l467 -467l-98 -98l-465 467l-465 -467z" />
<glyph unicode="&#xd8;" d="M125 10l160 205q-41 180 34 522q57 270 130 418q172 348 485 348q172 0 264 -117l78 101l100 -68l-121 -153q47 -186 -28 -529q-23 -104 -45.5 -185t-72.5 -197.5t-111.5 -193.5t-164 -133.5t-225.5 -56.5q-172 0 -264 121l-119 -149zM424 391l670 858q-53 125 -187 125 q-137 0 -246.5 -135t-187.5 -502q-49 -229 -49 -346zM451 229q49 -129 184 -129q61 0 115.5 25t114 89.5t113.5 196.5t95 326q45 211 47 353z" />
<glyph unicode="&#xd9;" d="M288.5 261q-12.5 87 16.5 208l213 1006h154l-232 -1088q-31 -147 30.5 -217t164.5 -70q133 0 212 85t107 221l228 1069h153l-231 -1088q-29 -133 -111 -230.5t-181 -141.5t-204 -44q-53 0 -101 12.5t-99.5 45t-79 89t-40 143.5zM686 1839l137 127l301 -291l-100 -100z " />
<glyph unicode="&#xda;" d="M288.5 261q-12.5 87 16.5 208l213 1006h154l-232 -1088q-31 -147 30.5 -217t164.5 -70q133 0 212 85t107 221l228 1069h153l-231 -1088q-29 -133 -111 -230.5t-181 -141.5t-204 -44q-53 0 -101 12.5t-99.5 45t-79 89t-40 143.5zM717 1675l424 291l84 -127l-453 -264z" />
<glyph unicode="&#xdb;" d="M288.5 261q-12.5 87 16.5 208l213 1006h154l-232 -1088q-31 -147 30.5 -217t164.5 -70q133 0 212 85t107 221l228 1069h153l-231 -1088q-29 -133 -111 -230.5t-181 -141.5t-204 -44q-53 0 -101 12.5t-99.5 45t-79 89t-40 143.5zM582 1657l432 313l301 -313l-101 -88 l-241 211l-330 -211z" />
<glyph unicode="&#xdc;" d="M288.5 261q-12.5 87 16.5 208l213 1006h154l-232 -1088q-31 -147 30.5 -217t164.5 -70q133 0 212 85t107 221l228 1069h153l-231 -1088q-29 -133 -111 -230.5t-181 -141.5t-204 -44q-53 0 -101 12.5t-99.5 45t-79 89t-40 143.5zM645 1767.5q12 57.5 62.5 97.5t107.5 40 t91 -40t21.5 -97.5t-62.5 -97.5t-107.5 -40t-91 40t-21.5 97.5zM1011.5 1767.5q12.5 57.5 62.5 97.5t107.5 40t91.5 -40t21.5 -97.5t-62.5 -97.5t-107.5 -40t-91.5 40t-21.5 97.5z" />
<glyph unicode="&#xdd;" d="M436 1475h170l144 -668l424 668h169l-557 -852l-133 -623h-153l133 623zM676 1675l424 291l84 -127l-453 -264z" />
<glyph unicode="&#xde;" d="M274 0l314 1475h153l-61 -289h201q201 0 285.5 -117t39.5 -334q-47 -225 -203.5 -334.5t-384.5 -109.5h-129l-61 -291h-154zM518 420h170q137 0 235.5 81t129.5 232q70 324 -219 324h-181z" />
<glyph unicode="&#xdf;" d="M279 0l249 1176q25 117 141.5 222t272.5 105q145 0 220 -112.5t44 -260.5q-43 -205 -248 -331q213 -102 154 -387q-27 -123 -78 -213t-114.5 -135.5t-122 -66t-115.5 -20.5q-100 0 -182 72l94 113q68 -55 121 -56q94 0 154.5 88.5t82.5 192.5q37 174 -36.5 256t-249.5 78 l26 129q129 -2 231.5 73.5t129.5 202.5q20 100 -21 174t-137 74q-86 0 -142.5 -60.5t-84.5 -201.5l-236 -1112h-153z" />
<glyph unicode="&#xe0;" d="M276 336q35 166 155 280.5t280 114.5q98 0 217 -53l22 104q20 92 -18.5 149.5t-124.5 57.5q-23 0 -49.5 -4t-47 -8t-52.5 -15l-46 -17l-51 -19l-47 -19l-6 135q209 76 332 76q152 0 221 -105.5t39 -248.5l-101 -475q-33 -164 -16 -297l-147 -19l-11 138 q-139 -133 -299 -134q-152 0 -217.5 103.5t-32.5 255.5zM428 328q-18 -86 12.5 -154t112.5 -68q55 0 114.5 34t90 62.5t90.5 92.5v4l53 250q-111 53 -199 53q-109 0 -179 -79.5t-95 -194.5zM625 1460l137 127l301 -291l-100 -100z" />
<glyph unicode="&#xe1;" d="M276 336q35 166 155 280.5t280 114.5q98 0 217 -53l22 104q20 92 -18.5 149.5t-124.5 57.5q-23 0 -49.5 -4t-47 -8t-52.5 -15l-46 -17l-51 -19l-47 -19l-6 135q209 76 332 76q152 0 221 -105.5t39 -248.5l-101 -475q-33 -164 -16 -297l-147 -19l-11 138 q-139 -133 -299 -134q-152 0 -217.5 103.5t-32.5 255.5zM428 328q-18 -86 12.5 -154t112.5 -68q55 0 114.5 34t90 62.5t90.5 92.5v4l53 250q-111 53 -199 53q-109 0 -179 -79.5t-95 -194.5zM696 1296l424 291l84 -127l-452 -264z" />
<glyph unicode="&#xe2;" d="M276 336q35 166 155 280.5t280 114.5q98 0 217 -53l22 104q20 92 -18.5 149.5t-124.5 57.5q-23 0 -49.5 -4t-47 -8t-52.5 -15l-46 -17l-51 -19l-47 -19l-6 135q209 76 332 76q152 0 221 -105.5t39 -248.5l-101 -475q-33 -164 -16 -297l-147 -19l-11 138 q-139 -133 -299 -134q-152 0 -217.5 103.5t-32.5 255.5zM428 328q-18 -86 12.5 -154t112.5 -68q55 0 114.5 34t90 62.5t90.5 92.5v4l53 250q-111 53 -199 53q-109 0 -179 -79.5t-95 -194.5zM500 1278l432 313l301 -313l-100 -88l-242 211l-330 -211z" />
<glyph unicode="&#xe3;" d="M276 336q35 166 155 280.5t280 114.5q98 0 217 -53l22 104q20 92 -18.5 149.5t-124.5 57.5q-23 0 -49.5 -4t-47 -8t-52.5 -15l-46 -17l-51 -19l-47 -19l-6 135q209 76 332 76q152 0 221 -105.5t39 -248.5l-101 -475q-33 -164 -16 -297l-147 -19l-11 138 q-139 -133 -299 -134q-152 0 -217.5 103.5t-32.5 255.5zM428 328q-18 -86 12.5 -154t112.5 -68q55 0 114.5 34t90 62.5t90.5 92.5v4l53 250q-111 53 -199 53q-109 0 -179 -79.5t-95 -194.5zM451 1290q70 104 141.5 163.5t165.5 59.5q33 0 64.5 -11t47 -20t52.5 -34 q4 -2 24.5 -16.5t32.5 -21.5t30.5 -15.5t32.5 -8.5q31 0 61 22t44 40t37 55l114 -51q-47 -84 -120.5 -139.5t-157.5 -55.5q-76 0 -166 64q-84 63 -127 63q-70 0 -160 -139z" />
<glyph unicode="&#xe4;" d="M276 336q35 166 155 280.5t280 114.5q98 0 217 -53l22 104q20 92 -18.5 149.5t-124.5 57.5q-23 0 -49.5 -4t-47 -8t-52.5 -15l-46 -17l-51 -19l-47 -19l-6 135q209 76 332 76q152 0 221 -105.5t39 -248.5l-101 -475q-33 -164 -16 -297l-147 -19l-11 138 q-139 -133 -299 -134q-152 0 -217.5 103.5t-32.5 255.5zM428 328q-18 -86 12.5 -154t112.5 -68q55 0 114.5 34t90 62.5t90.5 92.5v4l53 250q-111 53 -199 53q-109 0 -179 -79.5t-95 -194.5zM563 1388.5q12 57.5 62.5 97.5t108 40t91 -40t21.5 -97.5t-62.5 -97.5t-108 -40 t-91 40t-21.5 97.5zM930 1388.5q12 57.5 62 97.5t107.5 40t91.5 -40t21.5 -97.5t-62.5 -97.5t-107.5 -40t-91 40t-21.5 97.5z" />
<glyph unicode="&#xe5;" d="M276 336q35 166 155 280.5t280 114.5q98 0 217 -53l22 104q20 92 -18.5 149.5t-124.5 57.5q-23 0 -49.5 -4t-47 -8t-52.5 -15l-46 -17l-51 -19l-47 -19l-6 135q209 76 332 76q152 0 221 -105.5t39 -248.5l-101 -475q-33 -164 -16 -297l-147 -19l-11 138 q-139 -133 -299 -134q-152 0 -217.5 103.5t-32.5 255.5zM428 328q-18 -86 12.5 -154t112.5 -68q55 0 114.5 34t90 62.5t90.5 92.5v4l53 250q-111 53 -199 53q-109 0 -179 -79.5t-95 -194.5zM686 1390.5q16 79.5 87 137t148.5 57.5t121.5 -57.5t28 -137t-86 -137 t-147.5 -57.5t-122.5 57.5t-29 137zM815 1391q-4 -27 10.5 -46.5t41 -19.5t49 19.5t26.5 46.5q6 27 -8 46t-41 19t-49.5 -19t-28.5 -46z" />
<glyph unicode="&#xe6;" d="M147 332q29 133 104 227t149.5 130t142.5 36q59 0 137 -20l14 67q49 217 -47 217q-33 0 -74 -14t-67.5 -28.5t-75.5 -43.5t-65 -37l-7 140q211 113 320 112q53 0 84 -14t72 -53q92 68 204 67q41 0 78 -11t79 -44t60.5 -93.5t26.5 -158.5t-27 -242l-12 -59h-450l-50 -227 q-12 -51 -13 -84t19.5 -63t69.5 -30q47 0 117 25t101 41l114 59l29 -127q-246 -127 -398 -127q-59 0 -95 16.5t-73 59.5q-104 -76 -233 -76q-145 0 -205 102.5t-29 252.5zM301 326q-18 -88 12.5 -154t114.5 -66q45 0 76 17.5t49 54.5t26.5 64.5t20.5 81.5l49 237 q-41 35 -108 35q-96 0 -158 -84t-82 -186zM819 639h297q10 55 14.5 108.5t-3 112t-40 94t-90.5 35.5q-55 0 -86.5 -39t-52.5 -131z" />
<glyph unicode="&#xe7;" d="M317 537q63 301 231.5 441t358.5 140q242 0 353 -244l-152 -88q-59 203 -227 203q-131 0 -245 -106.5t-163 -331.5q-49 -233 23.5 -339t199.5 -106q139 0 328 181l80 -109q-113 -98 -211 -148t-213 -53l-23 -40q76 -4 119 -44t27 -114q-16 -76 -89 -121t-153 -45 q-94 0 -213 59l70 113q86 -43 151 -43q72 0 82 45q6 29 -22.5 39t-114.5 18q-27 2 -41 4l84 146q-143 35 -218 167t-22 376z" />
<glyph unicode="&#xe8;" d="M274.5 332.5q-8.5 101.5 18.5 208.5q51 240 202.5 408.5t381.5 168.5q102 0 172.5 -44t100.5 -105.5t41 -141t7 -134t-12 -101.5l-17 -84h-729q-76 -401 226 -402q154 0 366 117l37 -137q-264 -109 -442 -109q-117 0 -197 48.5t-113.5 127t-42 180zM465 637h577 q27 143 -27 247.5t-177 104.5q-234 0 -373 -352zM686 1460l137 127l301 -291l-100 -100z" />
<glyph unicode="&#xe9;" d="M274.5 332.5q-8.5 101.5 18.5 208.5q51 240 202.5 408.5t381.5 168.5q102 0 172.5 -44t100.5 -105.5t41 -141t7 -134t-12 -101.5l-17 -84h-729q-76 -401 226 -402q154 0 366 117l37 -137q-264 -109 -442 -109q-117 0 -197 48.5t-113.5 127t-42 180zM465 637h577 q27 143 -27 247.5t-177 104.5q-234 0 -373 -352zM676 1296l424 291l84 -127l-453 -264z" />
<glyph unicode="&#xea;" d="M274.5 332.5q-8.5 101.5 18.5 208.5q51 240 202.5 408.5t381.5 168.5q102 0 172.5 -44t100.5 -105.5t41 -141t7 -134t-12 -101.5l-17 -84h-729q-76 -401 226 -402q154 0 366 117l37 -137q-264 -109 -442 -109q-117 0 -197 48.5t-113.5 127t-42 180zM465 637h577 q27 143 -27 247.5t-177 104.5q-234 0 -373 -352zM520 1278l432 313l301 -313l-100 -88l-242 211l-329 -211z" />
<glyph unicode="&#xeb;" d="M274.5 332.5q-8.5 101.5 18.5 208.5q51 240 202.5 408.5t381.5 168.5q102 0 172.5 -44t100.5 -105.5t41 -141t7 -134t-12 -101.5l-17 -84h-729q-76 -401 226 -402q154 0 366 117l37 -137q-264 -109 -442 -109q-117 0 -197 48.5t-113.5 127t-42 180zM465 637h577 q27 143 -27 247.5t-177 104.5q-234 0 -373 -352zM583.5 1388.5q12.5 57.5 62.5 97.5t107.5 40t91.5 -40t21.5 -97.5t-62.5 -97.5t-107.5 -40t-91.5 40t-21.5 97.5zM950.5 1388.5q12.5 57.5 62.5 97.5t107.5 40t91 -40t21.5 -97.5t-62.5 -97.5t-107.5 -40t-91 40t-21.5 97.5z " />
<glyph unicode="&#xec;" d="M459 967l28 129h465l-233 -1096h-154l205 967h-311zM645 1460l137 127l301 -291l-100 -100z" />
<glyph unicode="&#xed;" d="M459 967l28 129h465l-233 -1096h-154l205 967h-311zM676 1296l424 291l84 -127l-453 -264z" />
<glyph unicode="&#xee;" d="M459 967l28 129h465l-233 -1096h-154l205 967h-311zM459 1278l432 313l301 -313l-100 -88l-242 211l-330 -211z" />
<glyph unicode="&#xef;" d="M459 967l28 129h465l-233 -1096h-154l205 967h-311zM563 1388.5q12 57.5 62.5 97.5t108 40t91 -40t21.5 -97.5t-62.5 -97.5t-108 -40t-91 40t-21.5 97.5zM930 1388.5q12 57.5 62 97.5t107.5 40t91.5 -40t21.5 -97.5t-62.5 -97.5t-107.5 -40t-91 40t-21.5 97.5z" />
<glyph unicode="&#xf0;" d="M299 271.5q-12 109.5 16 275.5q61 291 219 431t330 140q109 0 203 -102l6 4q-39 160 -166 274l-303 -127l-76 70l297 129q-92 70 -243 109l110 45q150 -20 260 -103l244 103l80 -72l-240 -100q111 -109 161 -300.5t3 -416.5q-135 -653 -569 -654q-78 0 -142.5 27 t-121 92.5t-68.5 175zM447.5 397.5q-3.5 -69.5 10 -139.5t63.5 -111t136 -41q279 0 375 441q16 80 19.5 149.5t-11 140t-64.5 111.5t-136 41q-279 0 -371 -442q-18 -80 -21.5 -149.5z" />
<glyph unicode="&#xf1;" d="M227 0l117 551q72 342 68 545h147l-8 -201q80 100 193.5 161.5t226.5 61.5q125 0 173 -99t17 -247l-164 -772h-153l153 727q12 55 16.5 87t3.5 80t-25.5 71.5t-71.5 23.5q-127 0 -256 -134t-187 -398l-96 -457h-154zM451 1290q70 104 141.5 163.5t165.5 59.5 q33 0 64.5 -11t47 -20t52.5 -34q4 -2 24.5 -16.5t32.5 -21.5t30.5 -15.5t32.5 -8.5q31 0 61 22t44 40t37 55l114 -51q-47 -84 -120.5 -139.5t-157.5 -55.5q-76 0 -166 64q-84 63 -127 63q-70 0 -160 -139z" />
<glyph unicode="&#xf2;" d="M294 271.5q-11 109.5 17 275.5q33 152 94.5 266.5t139.5 179t158.5 95t162.5 30.5q111 0 184.5 -43t105.5 -105.5t41 -146.5t4 -147.5t-19 -128.5q-33 -152 -94.5 -266.5t-139.5 -178t-158.5 -94.5t-164.5 -31q-78 0 -142.5 27t-121 92.5t-67.5 175zM465 547 q-96 -440 186 -441q281 0 377 441q92 442 -188 442q-283 0 -375 -442zM686 1460l137 127l301 -291l-100 -100z" />
<glyph unicode="&#xf3;" d="M294 271.5q-11 109.5 17 275.5q33 152 94.5 266.5t139.5 179t158.5 95t162.5 30.5q111 0 184.5 -43t105.5 -105.5t41 -146.5t4 -147.5t-19 -128.5q-33 -152 -94.5 -266.5t-139.5 -178t-158.5 -94.5t-164.5 -31q-78 0 -142.5 27t-121 92.5t-67.5 175zM465 547 q-96 -440 186 -441q281 0 377 441q92 442 -188 442q-283 0 -375 -442zM676 1296l424 291l84 -127l-453 -264z" />
<glyph unicode="&#xf4;" d="M294 271.5q-11 109.5 17 275.5q33 152 94.5 266.5t139.5 179t158.5 95t162.5 30.5q111 0 184.5 -43t105.5 -105.5t41 -146.5t4 -147.5t-19 -128.5q-33 -152 -94.5 -266.5t-139.5 -178t-158.5 -94.5t-164.5 -31q-78 0 -142.5 27t-121 92.5t-67.5 175zM465 547 q-96 -440 186 -441q281 0 377 441q92 442 -188 442q-283 0 -375 -442zM520 1278l432 313l301 -313l-100 -88l-242 211l-329 -211z" />
<glyph unicode="&#xf5;" d="M294 271.5q-11 109.5 17 275.5q33 152 94.5 266.5t139.5 179t158.5 95t162.5 30.5q111 0 184.5 -43t105.5 -105.5t41 -146.5t4 -147.5t-19 -128.5q-33 -152 -94.5 -266.5t-139.5 -178t-158.5 -94.5t-164.5 -31q-78 0 -142.5 27t-121 92.5t-67.5 175zM451 1290 q70 104 141.5 163.5t165.5 59.5q33 0 64.5 -11t47 -20t52.5 -34q4 -2 24.5 -16.5t32.5 -21.5t30.5 -15.5t32.5 -8.5q31 0 61 22t44 40t37 55l114 -51q-47 -84 -120.5 -139.5t-157.5 -55.5q-76 0 -166 64q-84 63 -127 63q-70 0 -160 -139zM465 547q-96 -440 186 -441 q281 0 377 441q92 442 -188 442q-283 0 -375 -442z" />
<glyph unicode="&#xf6;" d="M294 271.5q-11 109.5 17 275.5q33 152 94.5 266.5t139.5 179t158.5 95t162.5 30.5q111 0 184.5 -43t105.5 -105.5t41 -146.5t4 -147.5t-19 -128.5q-33 -152 -94.5 -266.5t-139.5 -178t-158.5 -94.5t-164.5 -31q-78 0 -142.5 27t-121 92.5t-67.5 175zM465 547 q-96 -440 186 -441q281 0 377 441q92 442 -188 442q-283 0 -375 -442zM583.5 1388.5q12.5 57.5 62.5 97.5t107.5 40t91.5 -40t21.5 -97.5t-62.5 -97.5t-107.5 -40t-91.5 40t-21.5 97.5zM950.5 1388.5q12.5 57.5 62.5 97.5t107.5 40t91 -40t21.5 -97.5t-62.5 -97.5 t-107.5 -40t-91 40t-21.5 97.5z" />
<glyph unicode="&#xf7;" d="M195 670v135h1126v-135h-1126zM645 430q0 45 34 79t79 34t78.5 -34t33.5 -79t-33.5 -79t-78.5 -34t-79 34t-34 79zM645 1044.5q0 45.5 34 79t79 33.5t78.5 -33.5t33.5 -79t-33.5 -79t-78.5 -33.5t-79 33.5t-34 79z" />
<glyph unicode="&#xf8;" d="M186 4l117 139q-78 147 -20 404q33 152 95 266.5t140 179t159 95t163 30.5q123 0 207 -65l96 116l94 -75l-111 -131q86 -145 29 -416q-33 -152 -95.5 -266.5t-140 -178t-158.5 -94.5t-163 -31q-129 0 -221 74l-96 -121zM420 287l534 651q-53 51 -141 51t-156.5 -42 t-112.5 -115.5t-69.5 -144.5t-42.5 -152q-28 -137 -12 -248zM471 164q57 -57 154 -58q281 0 379 453q33 145 12 266z" />
<glyph unicode="&#xf9;" d="M305 334l162 762h154l-154 -717q-12 -53 -16.5 -88t-3 -84t26 -75t71.5 -26q127 0 257 141.5t185 399.5l96 449h154l-113 -531q-78 -362 -73 -565h-146l10 211q-78 -96 -193.5 -165t-215.5 -69q-137 0 -185.5 101.5t-15.5 255.5zM645 1460l137 127l301 -291l-100 -100z " />
<glyph unicode="&#xfa;" d="M305 334l162 762h154l-154 -717q-12 -53 -16.5 -88t-3 -84t26 -75t71.5 -26q127 0 257 141.5t185 399.5l96 449h154l-113 -531q-78 -362 -73 -565h-146l10 211q-78 -96 -193.5 -165t-215.5 -69q-137 0 -185.5 101.5t-15.5 255.5zM676 1296l424 291l84 -127l-453 -264z " />
<glyph unicode="&#xfb;" d="M305 334l162 762h154l-154 -717q-12 -53 -16.5 -88t-3 -84t26 -75t71.5 -26q127 0 257 141.5t185 399.5l96 449h154l-113 -531q-78 -362 -73 -565h-146l10 211q-78 -96 -193.5 -165t-215.5 -69q-137 0 -185.5 101.5t-15.5 255.5zM520 1278l432 313l301 -313l-100 -88 l-242 211l-329 -211z" />
<glyph unicode="&#xfc;" d="M305 334l162 762h154l-154 -717q-12 -53 -16.5 -88t-3 -84t26 -75t71.5 -26q127 0 257 141.5t185 399.5l96 449h154l-113 -531q-78 -362 -73 -565h-146l10 211q-78 -96 -193.5 -165t-215.5 -69q-137 0 -185.5 101.5t-15.5 255.5zM583.5 1388.5q12.5 57.5 62.5 97.5 t107.5 40t91.5 -40t21.5 -97.5t-62.5 -97.5t-107.5 -40t-91.5 40t-21.5 97.5zM950.5 1388.5q12.5 57.5 62.5 97.5t107.5 40t91 -40t21.5 -97.5t-62.5 -97.5t-107.5 -40t-91 40t-21.5 97.5z" />
<glyph unicode="&#xfd;" d="M10 -96l144 67q27 -176 112 -176q39 0 84 37t66 67l55 81l107 165l-150 951h166l106 -746l445 746h164l-625 -1028q-51 -84 -85 -133.5t-95.5 -122t-128 -109.5t-137.5 -37q-100 0 -159 67t-69 171zM676 1296l424 291l84 -127l-453 -264z" />
<glyph unicode="&#xfe;" d="M143 -420l414 1940h154l-109 -500l4 -4q123 102 258 102q78 0 144.5 -29.5t122 -97t67.5 -178.5t-16 -272q-31 -147 -99.5 -262t-151.5 -177.5t-163 -93.5t-152 -31q-113 0 -221 64l-98 -461h-154zM428 197q94 -90 190 -91q139 0 253 117t159 324q23 135 15.5 221 t-47.5 135t-79.5 67.5t-82.5 18.5q-150 0 -279 -190z" />
<glyph unicode="&#xff;" d="M10 -96l144 67q27 -176 112 -176q39 0 84 37t66 67l55 81l107 165l-150 951h166l106 -746l445 746h164l-625 -1028q-51 -84 -85 -133.5t-95.5 -122t-128 -109.5t-137.5 -37q-100 0 -159 67t-69 171zM583.5 1388.5q12.5 57.5 62.5 97.5t107.5 40t91.5 -40t21.5 -97.5 t-62.5 -97.5t-107.5 -40t-91.5 40t-21.5 97.5zM950.5 1388.5q12.5 57.5 62.5 97.5t107.5 40t91 -40t21.5 -97.5t-62.5 -97.5t-107.5 -40t-91 40t-21.5 97.5z" />
<glyph unicode="&#x152;" d="M168 305.5q-4 61.5 4 148.5t19.5 148.5t29.5 145.5q14 74 24.5 114.5t38 130.5t55.5 147.5t78 133.5t107.5 121t139 76.5t178.5 31.5q72 0 147 -28h535l-27 -129h-416l-110 -519h282l-28 -129h-283l-121 -569h432l-26 -129h-551q-27 -10 -84 -23q-43 -6 -84 -6 q-90 0 -155.5 28t-103.5 69t-57.5 108.5t-23.5 129zM324.5 419q-7.5 -132 21.5 -199.5t73 -93.5t118 -26q59 0 131 29l258 1214q-74 31 -117 31q-303 0 -434 -622q-43 -201 -50.5 -333z" />
<glyph unicode="&#x153;" d="M178 275.5q-8 109.5 21 271.5q33 154 92 270.5t130 179t138.5 92t130.5 29.5q61 0 156 -59q100 59 192 59q29 0 58.5 -7t65.5 -25.5t61.5 -55.5t44 -90t18.5 -139t-22 -193l-21 -98h-448l-50 -227q-23 -61 -11.5 -119t85.5 -58q47 0 117 25t101 41l114 59l29 -127 q-246 -127 -398 -127q-98 0 -166 68q-100 -68 -159 -68q-63 0 -119.5 29t-104 94.5t-55.5 175zM333.5 280.5q20.5 -98.5 56.5 -136.5t77 -38q51 0 100 58l168 794q-35 31 -65 31q-80 0 -173.5 -103.5t-144.5 -338.5q-39 -168 -18.5 -266.5zM821 639h295q10 55 14.5 108.5 t-3 112t-40 94t-90.5 35.5q-53 0 -84.5 -39t-52.5 -131z" />
<glyph unicode="&#x178;" d="M436 1475h170l144 -668l424 668h169l-557 -852l-133 -623h-153l133 623zM604 1767.5q12 57.5 62.5 97.5t107.5 40t91 -40t21.5 -97.5t-62.5 -97.5t-107.5 -40t-91 40t-21.5 97.5zM970.5 1767.5q12.5 57.5 62.5 97.5t107.5 40t91.5 -40t21.5 -97.5t-62.5 -97.5t-107.5 -40 t-91.5 40t-21.5 97.5z" />
<glyph unicode="&#x2c6;" d="M520 1278l432 313l301 -313l-100 -88l-242 211l-329 -211z" />
<glyph unicode="&#x2dc;" d="M481 1290q70 104 141.5 163.5t165.5 59.5q33 0 65 -11t47 -20t52 -34q4 -2 24.5 -16.5t33 -21.5t31 -15.5t32.5 -8.5q31 0 60.5 22t44 40t36.5 55l115 -51q-47 -84 -120.5 -139.5t-157.5 -55.5q-76 0 -166 64q-84 63 -127 63q-70 0 -160 -139z" />
<glyph unicode="&#x2013;" d="M397 670l27 129h721l-27 -129h-721z" />
<glyph unicode="&#x2014;" d="M143 670l27 129h1229l-27 -129h-1229z" />
<glyph unicode="&#x2018;" d="M721 1184q25 119 142.5 204t252.5 115l-29 -139q-86 -16 -145 -66q55 -4 86 -44t19 -97q-14 -70 -69.5 -115t-125.5 -45q-74 0 -110.5 55.5t-20.5 131.5z" />
<glyph unicode="&#x2019;" d="M688 997l29 140q82 16 145 65q-57 4 -88 44t-18 97q14 70 70.5 115t125.5 45q74 0 111 -55t20 -131q-25 -119 -143.5 -204t-251.5 -116z" />
<glyph unicode="&#x201a;" d="M426 -229l29 139q82 16 145 65q-57 4 -88 44t-18 98q14 70 70.5 114.5t125.5 44.5q74 0 111 -55t20 -131q-25 -119 -143.5 -203.5t-251.5 -115.5z" />
<glyph unicode="&#x201c;" d="M498 1184q25 119 142.5 204t252.5 115l-29 -139q-86 -16 -145 -66q55 -4 86 -44t18 -97q-14 -70 -69.5 -115t-124.5 -45q-74 0 -110.5 55.5t-20.5 131.5zM944 1184q25 119 142.5 204t252.5 115l-28 -139q-86 -16 -146 -66q55 -4 86 -44t19 -97q-14 -70 -69.5 -115 t-125.5 -45q-74 0 -110.5 55.5t-20.5 131.5z" />
<glyph unicode="&#x201d;" d="M463 997l29 140q82 16 145 65q-57 4 -88 44t-19 97q14 70 70.5 115t126.5 45q74 0 110.5 -55t20.5 -131q-25 -119 -143.5 -204t-251.5 -116zM909 997l29 140q82 16 145 65q-57 4 -87.5 44t-18.5 97q14 70 70.5 115t126.5 45q74 0 110.5 -55t20.5 -131q-25 -119 -144 -204 t-252 -116z" />
<glyph unicode="&#x201e;" d="M201 -229l30 139q82 16 144 65q-55 4 -86 44t-19 98q14 70 70.5 114.5t126.5 44.5q74 0 109.5 -55t19.5 -131q-25 -119 -142.5 -203.5t-252.5 -115.5zM647 -229l31 139q82 16 143 65q-55 4 -85.5 44t-18.5 98q14 70 70.5 114.5t125.5 44.5q74 0 110 -55t19 -131 q-25 -119 -142.5 -203.5t-252.5 -115.5z" />
<glyph unicode="&#x2022;" d="M410 786q0 84 60 141.5t144 57.5t144.5 -57.5t60.5 -141.5t-60.5 -141t-144.5 -57t-144 57t-60 141z" />
<glyph unicode="&#x2026;" d="M82 114.5q12 59.5 65.5 101.5t115 42t95 -41t21.5 -102q-12 -59 -64.5 -101.5t-114 -42.5t-96 42t-22.5 101.5zM491.5 114.5q12.5 59.5 65.5 101.5t114.5 42t95.5 -41t21 -102q-12 -59 -64 -101.5t-113.5 -42.5t-96.5 42t-22.5 101.5zM901 114.5q12 59.5 65.5 101.5 t115 42t95 -41t21.5 -102q-12 -59 -64.5 -101.5t-114 -42.5t-96 42t-22.5 101.5z" />
<glyph unicode="&#x2039;" d="M399 729l672 531l76 -99l-551 -432l367 -432l-119 -102z" />
<glyph unicode="&#x203a;" d="M393 297l551 432l-366 432l116 99l449 -531l-676 -534z" />
<glyph unicode="&#x20ac;" d="M299 555l90 145h86q12 61 21 93h-146l90 145h92q152 565 555 565q92 0 162 -30.5t94.5 -58.5t34.5 -50l-88 -121q-72 131 -241 131q-94 0 -172 -68.5t-123 -160.5t-74 -207h448l-90 -145h-393l-20 -93h356l-90 -145h-293q-70 -455 166 -455q176 0 307 121l-35 -164 q-133 -86 -291 -86q-117 0 -189.5 48.5t-97 128t-28.5 185t19 222.5h-150z" />
<glyph unicode="&#x2122;" d="M309 1409l25 111h483l-24 -111h-175l-96 -459h-135l96 459h-174zM766 950l121 570h198l58 -336l198 336h199l-121 -570h-123l97 459h-4l-259 -459h-73l-70 459h-2l-96 -459h-123z" />
<glyph unicode="&#xe000;" horiz-adv-x="1095" d="M0 1095h1095v-1095h-1095v1095z" />
<glyph unicode="&#xfb01;" d="M270 0l207 969h-203l27 129h203l14 65q35 156 151.5 248t254.5 92q31 0 64.5 -5t56 -10t59.5 -18.5t52 -20.5l56 -26q41 -18 52 -22l-35 -170q-14 8 -89 55t-127 67.5t-106 20.5q-197 0 -239 -223l-11 -53h564l-234 -1098h-153l206 969h-409l-207 -969h-154z" />
<glyph unicode="&#xfb02;" d="M264 0l207 969h-203l27 129h203l14 65q35 156 152.5 248t253.5 92q92 0 177 -29.5t212 -93.5l-293 -1380h-154l275 1288q-10 6 -41 23l-46 24q-15 8 -42 18.5t-50.5 15.5t-48.5 5q-197 0 -241 -209l-15 -67h297l-26 -129h-297l-207 -969h-154z" />
<glyph unicode="&#xfb03;" horiz-adv-x="3686" d="M2917 967l28 129h465l-233 -1096h-154l205 967h-311zM3259 1374q10 55 55 92t100 37q53 0 83 -37q22 -27 22 -65q0 -13 -2 -27q-12 -55 -58.5 -92t-99.5 -37t-83 37q-21 26 -21 61q0 15 4 31zM1616 897l27 129h272l23 104q39 182 160.5 277.5t256.5 95.5q121 0 273 -76 l-33 -155q-16 8 -73.5 39.5t-98.5 47t-84 15.5q-195 0 -244 -225l-26 -123h352l-27 -129h-352l-190 -897h-154l190 897h-272zM387 897l27 129h272l23 104q39 182 160.5 277.5t256.5 95.5q121 0 273 -76l-33 -155q-16 8 -73.5 39.5t-98.5 47t-84 15.5q-195 0 -244 -225 l-26 -123h352l-27 -129h-352l-190 -897h-154l190 897h-272z" />
<glyph unicode="&#xfb04;" horiz-adv-x="3686" d="M2990 1391l29 129h465l-324 -1520h-153l295 1391h-312zM1616 897l27 129h272l23 104q39 182 160.5 277.5t256.5 95.5q121 0 273 -76l-33 -155q-16 8 -73.5 39.5t-98.5 47t-84 15.5q-195 0 -244 -225l-26 -123h352l-27 -129h-352l-190 -897h-154l190 897h-272zM387 897 l27 129h272l23 104q39 182 160.5 277.5t256.5 95.5q121 0 273 -76l-33 -155q-16 8 -73.5 39.5t-98.5 47t-84 15.5q-195 0 -244 -225l-26 -123h352l-27 -129h-352l-190 -897h-154l190 897h-272z" />
</font>
</defs>
</svg>
