<?xml version="1.0" standalone="no"?>
<!DOCTYPE svg PUBLIC "-//W3C//DTD SVG 1.1//EN" "http://www.w3.org/Graphics/SVG/1.1/DTD/svg11.dtd" >
<svg xmlns="http://www.w3.org/2000/svg">
<metadata>
This is a custom SVG webfont generated by Font Squirrel.
Copyright   :  1987 1990 1991 1995 1998 2001 2002 Adobe Systems Incorporated All rights reserved
Designer    : Roger Roberson
Foundry URL : httpwwwadobecomtype
</metadata>
<defs>
<font id="LetterGothicStdBold" horiz-adv-x="1228" >
<font-face units-per-em="2048" ascent="1520" descent="-528" />
<missing-glyph horiz-adv-x="500" />
<glyph unicode=" " />
<glyph unicode="!" d="M451 131q0 66 49 112t116.5 46t115.5 -45t48 -113t-48 -114t-115.5 -46t-116.5 46t-49 114zM514 1475h201l-29 -1026h-137z" />
<glyph unicode="&#x22;" d="M231 1208v267h283v-267l-86 -264h-111zM715 1208v267h282v-267l-86 -264h-110z" />
<glyph unicode="#" d="M33 471l30 135h267l49 271h-268l24 135h271l116 637h154l-340 -1846h-154l123 668h-272zM545 -197l340 1846h153l-116 -637h272l-27 -135h-272l-49 -271h274l-24 -135h-275l-123 -668h-153z" />
<glyph unicode="$" d="M207 291l94 110q127 -119 231 -135v463q-119 41 -196 121q-86 92 -86 211t82 203t200 104v152h154v-150q156 -20 295 -143l-90 -117q-104 104 -205 125v-406q299 -111 299 -368q0 -137 -81 -223t-218 -109v-190h-154v190q-171 12 -325 162zM403 1057q0 -113 132 -183v355 q-70 -37 -101 -70.5t-31 -101.5zM686 264q68 20 106.5 70.5t38.5 122.5q0 150 -145 227v-420z" />
<glyph unicode="%" d="M102 1118q0 152 85 268.5t231 116.5q102 0 162.5 -58.5t60.5 -160.5q0 -158 -84 -280.5t-233 -122.5q-109 0 -165.5 63t-56.5 174zM137 -29l774 1532h148l-774 -1532h-148zM248 1098q0 -104 80 -104.5t124 99t44 193.5q0 104 -76 105q-86 0 -129 -97.5t-43 -195.5z M567 209q0 152 85 268.5t231 116.5q102 0 162.5 -58.5t60.5 -160.5q0 -158 -84 -281t-234 -123q-109 0 -165 63.5t-56 174.5zM713 188q0 -104 79.5 -104t124 99.5t44.5 193.5q0 104 -76 104q-84 0 -128 -97.5t-44 -195.5z" />
<glyph unicode="&#x26;" d="M162 307q0 137 63.5 249t182.5 249q-45 72 -69 117t-46.5 113.5t-22.5 131.5q0 168 87 252t184 84q117 0 189.5 -84t72.5 -202q0 -84 -36 -166t-68.5 -125t-108.5 -131l241 -389q6 33 15 102q8 86 8 246h150q-4 -324 -70 -490l178 -203l-104 -108l-156 180 q-137 -162 -340 -162q-156 0 -253 91t-97 245zM315 309q0 -94 51.5 -151.5t145.5 -57.5q162 0 258 146l-281 426q-53 -66 -84.5 -112t-60.5 -115.5t-29 -135.5zM424 1188q0 -121 86 -266q8 14 36.5 55t41 60.5t30 54t24.5 66.5t7 67q0 53 -27.5 101t-78.5 48q-59 0 -89 -60 t-30 -126z" />
<glyph unicode="'" d="M473 1208v267h283v-267l-86 -266h-111z" />
<glyph unicode="(" d="M358 680q0 256 103.5 482.5t306.5 357.5l74 -103q-330 -236 -330 -737.5t330 -738.5l-74 -101q-201 127 -305.5 355.5t-104.5 484.5z" />
<glyph unicode=")" d="M387 -59q330 236 330 739q0 502 -330 737l74 103q203 -131 306 -357.5t103 -482.5t-104 -483.5t-305 -356.5z" />
<glyph unicode="*" d="M131 1071l41 133l369 -108v379h145v-379l369 108l43 -133l-379 -108l237 -299l-108 -86l-234 292l-227 -292l-113 86l236 299z" />
<glyph unicode="+" d="M51 670v135h492v485h143v-485h492v-135h-492v-486h-143v486h-492z" />
<glyph unicode="," d="M471 117q0 70 46 114.5t116 44.5q74 0 122 -55t48 -131q0 -119 -99.5 -204t-228.5 -115v139q80 16 131 65q-57 4 -96 44.5t-39 97.5z" />
<glyph unicode="-" d="M348 670v129h533v-129h-533z" />
<glyph unicode="." d="M451 131q0 66 49 112t116.5 46t115.5 -45t48 -113t-48 -114t-115.5 -46t-116.5 46t-49 114z" />
<glyph unicode="/" d="M229 -55l617 1585h153l-616 -1585h-154z" />
<glyph unicode="0" d="M186 737v17v86q0 37 7.5 120.5t21.5 147t46 142.5t76 130.5t115.5 87t161.5 35.5q88 0 158 -32.5t114 -80t75.5 -123t47 -137t23.5 -149.5t9 -133t1 -111v-82q0 -27 -4 -96.5t-10 -112.5t-21.5 -111.5t-36 -112.5t-53 -96t-73.5 -83t-100.5 -51.5t-129.5 -20.5 q-428 0 -428 766zM340 654q0 -28 3 -95t10 -107t19.5 -101.5t33 -99.5t48 -76t68.5 -56.5t92 -18.5q57 0 101.5 25t86.5 89.5t64.5 196.5t22.5 326q0 188 -21.5 318.5t-61.5 197t-86 94t-106 27.5q-66 0 -115.5 -31.5t-78.5 -94t-47.5 -119t-24.5 -141.5t-7 -125t-1 -105 v-21v-83z" />
<glyph unicode="1" d="M256 1264v116l442 140v-1391h265v-129h-695v129h277v1223z" />
<glyph unicode="2" d="M205 0v66q0 156 47 275.5t115.5 197t201.5 192.5q72 59 101.5 87t89 90.5t86 119.5t26.5 117q0 104 -58 166.5t-161 62.5q-127 0 -193.5 -88t-72.5 -219h-154q10 195 120 315.5t302 120.5q166 0 268.5 -96t102.5 -260q0 -41 -9 -81t-19.5 -69.5t-37 -68.5t-42 -59.5 t-54.5 -59.5t-52 -51l-59 -55q-46 -42 -57 -50l-106 -96q-111 -100 -168 -198.5t-64 -229.5h672v-129h-825z" />
<glyph unicode="3" d="M143 252l136 80q102 -231 311 -232q135 0 221 79t86 214q0 172 -110.5 260t-278.5 72v129q129 -6 225 72t96 204q0 106 -74.5 175t-181.5 69q-90 0 -164.5 -62.5t-115.5 -150.5l-129 74q66 127 176.5 197.5t249.5 70.5q164 0 278.5 -111.5t114.5 -273.5q0 -197 -195 -317 q262 -115 263 -387q0 -201 -132.5 -322t-334.5 -121q-271 0 -441 281z" />
<glyph unicode="4" d="M125 381v100l543 1022h198v-993h211v-129h-211v-381h-153v381h-588zM301 510h412v784h-4z" />
<glyph unicode="5" d="M205 217l119 88q45 -88 120.5 -146.5t167.5 -58.5q123 0 196 105.5t73 234.5q0 172 -78 263.5t-174 91.5q-150 0 -252 -168l-156 30l62 818h659v-129h-522l-41 -517q102 94 246 95q176 0 292.5 -128t116.5 -343q0 -199 -118.5 -340.5t-313.5 -141.5q-235 0 -397 246z" />
<glyph unicode="6" d="M195 627q0 428 165.5 652t393.5 224q133 0 276 -90l-74 -127q-129 88 -208 88q-92 0 -169 -60.5t-124 -152.5t-75 -189.5t-32 -180.5q133 150 313.5 149.5t283 -136.5t102.5 -323q0 -205 -113 -357.5t-311 -152.5q-102 0 -181.5 42t-125.5 106.5t-74.5 155t-37.5 174.5 t-9 178zM358 444q0 -133 64.5 -238.5t189.5 -105.5q143 0 212 114t69 265q0 137 -61.5 234.5t-190.5 97.5q-119 0 -201 -114t-82 -253z" />
<glyph unicode="7" d="M190 1346v129h828l-576 -1475h-166l541 1346h-627z" />
<glyph unicode="8" d="M143 401q0 121 57.5 225.5t164.5 145.5q-94 82 -133 154.5t-39 189.5q0 176 120.5 281.5t300.5 105.5q186 0 303 -107.5t117 -293.5q0 -109 -40 -180.5t-130 -149.5q106 -41 163.5 -145.5t57.5 -225.5q0 -188 -122.5 -309t-348.5 -121q-231 0 -351 124t-120 306zM297 401 q0 -141 87 -221t230.5 -80t230.5 80t87 221q0 139 -88 220t-229.5 81t-229.5 -81t-88 -220zM346 1087q0 -117 76 -186.5t192 -69.5q123 0 195 74t72 199t-71 197.5t-196 72.5q-129 0 -198.5 -78t-69.5 -209z" />
<glyph unicode="9" d="M180 993q0 205 114 357.5t312 152.5q102 0 181 -42t125 -106.5t75 -154.5t38 -174t9 -178q0 -414 -162.5 -645.5t-396.5 -231.5q-133 0 -276 90l73 127q123 -88 209 -88q92 0 169 60.5t124 154t75 189.5t32 182q-72 -78 -143.5 -114.5t-170.5 -36.5q-180 0 -283.5 136 t-103.5 322zM334 995q0 -135 62.5 -233t189.5 -98q121 0 202.5 112.5t81.5 255.5q0 131 -65.5 236.5t-188.5 105.5q-143 0 -212.5 -113.5t-69.5 -265.5z" />
<glyph unicode=":" d="M451 131q0 66 49 112t116.5 46t115.5 -45t48 -113t-48 -114t-115.5 -46t-116.5 46t-49 114zM451 825q0 66 49 112t116.5 46t115.5 -45t48 -112.5t-48 -113.5t-115.5 -46t-116.5 45.5t-49 113.5z" />
<glyph unicode=";" d="M471 117q0 70 46 114.5t116 44.5q74 0 122 -55t48 -131q0 -119 -99.5 -204t-228.5 -115v139q80 16 131 65q-57 4 -96 44.5t-39 97.5zM471 825q0 66 49 112t117 46t116 -45t48 -112.5t-48 -113.5t-116 -46t-117 45.5t-49 113.5z" />
<glyph unicode="&#x3c;" d="M168 737l805 738l86 -107l-682 -631l682 -631l-86 -106z" />
<glyph unicode="=" d="M51 549v135h1127v-135h-1127zM51 791v135h1127v-135h-1127z" />
<glyph unicode="&#x3e;" d="M168 106l682 631l-682 631l86 107l805 -738l-805 -737z" />
<glyph unicode="?" d="M233 1149q8 164 106.5 259t262.5 95q170 0 270.5 -98t100.5 -268q0 -94 -32 -155.5t-99 -121.5l-74 -61q-41 -33 -54.5 -45.5t-23.5 -35t-10 -59.5v-217h-154v217q0 90 35 142.5t148 136.5q59 45 84.5 90t25.5 115q0 104 -58.5 167.5t-160.5 63.5t-157.5 -62.5 t-55.5 -162.5h-154zM455 131q0 66 49 112t116.5 46t115.5 -45t48 -113t-48 -114t-115.5 -46t-116.5 46t-49 114z" />
<glyph unicode="@" d="M-6 608q0 123 25.5 248t82 241.5t134 207t190.5 144.5t244 54q225 0 395 -180t170 -451q0 -82 -18.5 -164.5t-56.5 -161.5t-105.5 -128t-155.5 -49q-63 0 -97 18.5t-85 71.5q-59 -49 -100.5 -69.5t-104.5 -20.5q-88 0 -143.5 56t-55.5 144q0 92 38 197.5t98 173.5 q98 109 356 109h92l-55 -336q-2 -8 -6.5 -34t-7.5 -47.5t-3 -33.5q0 -41 19.5 -70.5t56.5 -29.5q49 0 87 40t56.5 101t27.5 116.5t9 102.5q0 133 -41 233.5t-106.5 153.5t-133 79t-132.5 26q-104 0 -193.5 -47.5t-148 -122t-100.5 -172t-60.5 -196.5t-18.5 -196 q0 -242 111 -366.5t324 -124.5q238 0 479 156l55 -138q-264 -172 -547 -172q-109 0 -208 38t-183 113t-134 200.5t-50 285.5zM467 582q0 -33 14.5 -58.5t42.5 -25.5q37 0 70 25.5t69.5 110.5t55.5 224l8 64q-115 -2 -187.5 -105.5t-72.5 -234.5z" />
<glyph unicode="A" d="M96 0l520 1597l523 -1597h-166l-131 434h-449l-131 -434h-166zM430 563h375l-189 596z" />
<glyph unicode="B" d="M221 0v1475h309q66 0 116 -4.5t120 -26t115 -59t78.5 -110.5t33.5 -173q0 -209 -194 -318q131 -63 194.5 -153t63.5 -230q0 -168 -114 -284.5t-300 -116.5h-422zM375 129h258q113 0 191.5 67.5t78.5 196.5q0 133 -85 221t-251 88h-192v-573zM375 831h178q111 0 199 76 t88 201q0 51 -12.5 90t-29 63.5t-48 42t-52 25.5t-58.5 12.5t-52 4.5h-47h-166v-515z" />
<glyph unicode="C" d="M180 729q0 111 10.5 207t41 204.5t82 184.5t141.5 127t209 51q154 0 258 -97t112 -251h-153q-2 94 -62.5 156.5t-152.5 62.5q-332 0 -332 -649q0 -625 317 -625q113 0 179.5 74t68.5 186h154q-12 -182 -119 -285.5t-289 -103.5q-465 0 -465 758z" />
<glyph unicode="D" d="M229 0v1475h375q113 0 196 -35t147.5 -117t98 -228.5t33.5 -357.5q0 -410 -121.5 -573.5t-375.5 -163.5h-353zM383 129h188q72 0 120 10.5t96.5 46t76 100t45 177t17.5 274.5q0 164 -19.5 280t-49.5 179.5t-80 98t-95 43t-115 8.5h-184v-1217z" />
<glyph unicode="E" d="M285 0v1475h766v-129h-613v-525h441v-129h-441v-563h627v-129h-780z" />
<glyph unicode="F" d="M311 0v1475h791v-129h-637v-512h477v-129h-477v-705h-154z" />
<glyph unicode="G" d="M182 705q0 422 120 610t345 188q180 0 273.5 -111.5t97.5 -293.5h-154q2 18 2 34q0 89 -46 159q-54 83 -165 83q-74 0 -130 -30.5t-90 -90t-55.5 -120t-29.5 -143.5t-11 -137t-3 -126q0 -68 2 -119t10 -133t28.5 -140.5t52.5 -115.5t84 -88t122 -31q123 0 212 102.5 t89 307.5v98h-348v129h502v-766h-154v144q-119 -143 -309 -144q-35 0 -62.5 3t-77 18.5t-86 42t-81 82t-72 130.5t-47 193t-19.5 265z" />
<glyph unicode="H" d="M205 0v1475h153v-646h512v646h154v-1475h-154v700h-512v-700h-153z" />
<glyph unicode="I" d="M338 0v129h199v1217h-199v129h553v-129h-201v-1217h201v-129h-553z" />
<glyph unicode="J" d="M154 426v207h153v-264q0 -129 60.5 -199t173.5 -70q268 0 268 312v934h-272v129h426v-949q0 -59 -1 -89.5t-8.5 -98.5t-21.5 -109t-45 -95t-74 -86t-111.5 -54.5t-156.5 -22.5q-391 0 -391 455z" />
<glyph unicode="K" d="M264 0v1475h154v-650q92 10 247.5 201t254.5 467l151 -80l-121 -203q-131 -221 -217 -316t-172 -151l637 -743h-205l-563 694h-12v-694h-154z" />
<glyph unicode="L" d="M317 0v1475h154v-1346h639v-129h-793z" />
<glyph unicode="M" d="M156 0v1475h149l309 -736l310 736h151v-1475h-153v1122h-4l-304 -723l-301 723l-4 -4v-1118h-153z" />
<glyph unicode="N" d="M236 0v1475h178l448 -1102h6v1102h154v-1489h-145l-484 1190l-4 -5v-1171h-153z" />
<glyph unicode="O" d="M162 737q0 223 34.5 379t99 237t141.5 115.5t177 34.5q102 0 182.5 -35.5t127.5 -103.5t77.5 -139.5t44 -169t17.5 -165t4 -153.5v-16q0 -68 -1 -111t-9 -129t-24.5 -145.5t-49.5 -134t-80 -120.5t-120.5 -78t-168 -32t-168 34t-120.5 80t-80 124t-49.5 137.5 t-24.5 149.5t-9 131.5t-1 109.5zM315 670q0 -16 2 -79t8 -94l14 -93q9 -60 23.5 -95t38 -80t52 -69.5t70.5 -42t91 -17.5q63 0 112.5 26t93.5 91.5t68.5 196.5t24.5 323v23v16q0 598 -299 598t-299 -585v-31v-21v-67z" />
<glyph unicode="P" d="M274 0v1475h355q201 0 311.5 -117t110.5 -334q0 -225 -133.5 -334.5t-360.5 -109.5h-129v-580h-154zM428 709h170q137 0 218 80.5t81 232.5q0 324 -289 324h-180v-637z" />
<glyph unicode="Q" d="M160 723v14q0 223 34.5 379t100 238t142.5 115.5t177 33.5q455 0 455 -722v-19v-25q0 -231 -29.5 -378.5t-117.5 -247.5l180 -234h-189l-102 143q-90 -49 -197 -49q-94 0 -168.5 33t-120.5 79t-80 122t-50.5 136t-24.5 147t-9 128t-1 107zM313 737q0 -637 301 -637 q145 0 223 146.5t78 490.5q0 188 -24.5 319.5t-68.5 198t-94 93t-114 26.5q-88 0 -152.5 -53t-91 -132t-43.5 -168q-14 -72 -14 -132v-28q2 -35 2 -62t-2 -45v-17z" />
<glyph unicode="R" d="M268 0v1475h383q88 0 158 -25t111 -66t69.5 -86t41.5 -96t17.5 -84t4.5 -61q0 -258 -262 -408l397 -649h-187l-358 614q-37 0 -110.5 -2t-110.5 -2v-610h-154zM422 741h145q160 0 246 82t86 242q0 150 -72.5 215.5t-253.5 65.5h-151v-605z" />
<glyph unicode="S" d="M172 211l119 94q57 -92 142 -148.5t185 -56.5q117 0 199 78t82 195q0 68 -12.5 102.5t-69.5 84.5t-186 128l-133 80q-131 78 -202 162t-71 209q0 168 113 266t285 98q207 0 405 -184l-92 -111q-57 51 -96 81t-101.5 57.5t-122.5 27.5q-100 0 -168.5 -62.5t-68.5 -162.5 q0 -47 10 -79t59.5 -82t143.5 -107l117 -72q207 -127 275.5 -208t68.5 -208q0 -197 -119 -309.5t-316 -112.5q-260 0 -446 240z" />
<glyph unicode="T" d="M123 1346v129h985v-129h-420v-1346h-153v1346h-412z" />
<glyph unicode="U" d="M205 469v1006h153v-1088q0 -147 77 -217t179 -70q133 0 193.5 84t60.5 222v1069h154v-1088q0 -197 -122 -306.5t-286 -109.5q-68 0 -132 21.5t-130.5 73t-106.5 156t-40 247.5z" />
<glyph unicode="V" d="M170 1475h168l266 -1252h4l264 1252h170l-333 -1489h-211z" />
<glyph unicode="W" d="M127 1475h166l78 -1151h4l233 739l232 -739h4l74 1151h165l-112 -1489h-176l-187 639l-188 -639h-170z" />
<glyph unicode="X" d="M178 0l361 745l-351 730h177l249 -572l250 572h178l-348 -732l359 -743h-179l-260 590l-260 -590h-176z" />
<glyph unicode="Y" d="M123 1475h170l285 -668l282 668h170l-377 -852v-623h-153v623z" />
<glyph unicode="Z" d="M211 0v111l614 1235h-592v129h768v-109l-606 -1237h656v-129h-840z" />
<glyph unicode="[" d="M344 -229v1749h598v-129h-444v-1491h444v-129h-598z" />
<glyph unicode="\" d="M229 1530h154l616 -1585h-153z" />
<glyph unicode="]" d="M285 -100h444v1491h-444v129h598v-1749h-598v129z" />
<glyph unicode="^" d="M211 731l336 662h135l336 -662h-152l-252 496l-252 -496h-151z" />
<glyph unicode="_" d="M0 -154h1229v-102h-1229v102z" />
<glyph unicode="`" d="M334 1460l110 127l363 -291l-78 -100z" />
<glyph unicode="a" d="M205 336q0 166 95 280.5t255 114.5q100 0 229 -53v104q0 92 -51 149.5t-137 57.5q-23 0 -48.5 -4t-45 -8t-48 -15.5t-43 -16.5t-47 -19.5t-42.5 -18.5l-35 135q193 76 315 76q152 0 244 -105.5t92 -248.5v-475q0 -162 47 -297l-143 -19l-39 138q-111 -133 -273 -134 q-152 0 -238.5 103.5t-86.5 255.5zM358 328q0 -86 45.5 -154t126.5 -68q55 0 106.5 33t78 63.5t69.5 92.5v254q-121 53 -209 53q-109 0 -163 -79.5t-54 -194.5z" />
<glyph unicode="b" d="M180 -2q53 152 53 408v1114h154v-463q117 61 234 61q72 0 145.5 -30.5t143 -92t113.5 -176t44 -262.5q0 -154 -41 -270.5t-107.5 -181t-140 -96.5t-151.5 -32q-88 0 -137.5 27t-131.5 98l-32 -122zM387 299q90 -193 238 -193q43 0 88 20.5t93 67t77.5 138.5t29.5 219 q0 215 -92 326.5t-225 111.5q-98 0 -209 -88v-602z" />
<glyph unicode="c" d="M203 537q0 158 41 274.5t110.5 181t148.5 95t167 30.5q242 0 403 -244l-133 -88q-100 203 -270 203q-131 0 -222.5 -106.5t-91.5 -331.5q0 -233 95.5 -339t222.5 -106q137 0 289 181l104 -109q-92 -100 -182 -150.5t-209 -50.5q-82 0 -160 28t-151.5 88.5t-117.5 174 t-44 269.5z" />
<glyph unicode="d" d="M160 555q0 147 43 262t112.5 177.5t143 93t145.5 30.5q115 0 232 -63v465h153v-1129q0 -236 55 -395l-145 -19l-33 123q-80 -72 -130 -97.5t-138 -25.5q-78 0 -150.5 31t-139 95.5t-107.5 181t-41 270.5zM313 549q0 -125 30 -218t77 -138.5t93 -66t89 -20.5 q156 0 234 189v604q-109 90 -207 90q-133 0 -224.5 -112.5t-91.5 -327.5z" />
<glyph unicode="e" d="M178 541q0 113 26.5 212t80 183t144.5 133t210 49q102 0 183 -44t124 -106.5t70.5 -140t36 -134t8.5 -101.5v-84h-729q10 -401 311 -402q152 0 342 117l66 -137q-242 -109 -420 -109q-117 0 -207 47.5t-142.5 128t-78 179t-25.5 209.5zM330 637h577q-4 143 -80.5 247.5 t-199.5 104.5q-125 0 -194.5 -89t-102.5 -263z" />
<glyph unicode="f" d="M197 897v129h272v104q0 182 101.5 277.5t236.5 95.5q123 0 289 -76v-155q-18 8 -82 39.5t-109 47t-88 15.5q-195 0 -194 -225v-123h352v-129h-352v-897h-154v897h-272z" />
<glyph unicode="g" d="M184 586q0 139 39 254.5t137.5 196.5t241.5 81q137 0 268 -96l29 96h145q-47 -170 -47 -409v-603q0 -121 -41 -212t-105.5 -138t-130 -68.5t-130.5 -21.5q-94 0 -187.5 47t-160.5 121l108 94q102 -133 258 -133q115 0 175.5 88t60.5 215v86q-139 -92 -262 -92 q-188 0 -293 148.5t-105 345.5zM338 604q0 -162 70.5 -272.5t181.5 -110.5q72 0 145.5 42t108.5 102v489q-39 57 -105.5 96t-134.5 39q-137 0 -201.5 -116.5t-64.5 -268.5z" />
<glyph unicode="h" d="M242 0v1520h153v-582q135 180 330 180q59 0 101 -14t87 -60.5t70 -151t25 -263.5v-629h-154v641q0 348 -139 348q-80 0 -153 -59.5t-111 -138.5q-29 -57 -41.5 -131t-13.5 -112t-1 -140v-408h-153z" />
<glyph unicode="i" d="M254 967v129h465v-1096h-154v967h-311zM508 1374.5q0 55.5 38 92t91 36.5t91 -36.5t38 -92t-38 -92.5t-91 -37t-91 37t-38 92.5z" />
<glyph unicode="j" d="M150 106h153q0 -162 42 -236.5t151 -74.5q72 0 121 51.5t62 92.5t13 53v975h-317v129h471v-1073q0 -168 -108.5 -262.5t-239.5 -94.5q-172 0 -260 117.5t-88 322.5zM627 1374.5q0 55.5 37.5 92t93.5 36.5q53 0 90 -36.5t37 -92t-37 -92.5t-90 -37q-55 0 -93 37t-38 92.5z " />
<glyph unicode="k" d="M287 0v1520h153v-904q295 303 412 480h195l-136 -158l-109 -130l-88 -99l-110 -115l539 -594h-203l-430 504l-70 -70v-434h-153z" />
<glyph unicode="l" d="M238 1391v129h464v-1520h-153v1391h-311z" />
<glyph unicode="m" d="M94 1118h154l22 -98q113 98 215 98q72 0 106 -19.5t81 -80.5q113 102 211 102q111 0 176 -66.5t65 -176.5v-877h-153v877q0 55 -26.5 84.5t-74.5 29.5q-96 0 -161 -114v-877h-154v864q0 125 -86 125q-53 0 -103.5 -40t-72.5 -93v-856h-154v756q0 151 -45 362z" />
<glyph unicode="n" d="M178 1096h148l34 -201q59 100 160 161.5t213 61.5q125 0 194.5 -99t69.5 -247v-772h-153v727q0 43 -1 68.5t-8.5 67.5t-20.5 65.5t-39.5 42t-65.5 18.5q-127 0 -227.5 -134t-100.5 -398v-457h-154v551q0 336 -49 545z" />
<glyph unicode="o" d="M180 547q0 293 128 432t306 139q111 0 194 -43t128 -105.5t72.5 -146.5t35 -147.5t7.5 -128.5q0 -293 -128 -431.5t-309 -138.5q-78 0 -149.5 28t-138 89.5t-106.5 178t-40 274.5zM334 547q0 -440 280 -441q283 0 283 441q0 442 -283 442q-280 0 -280 -442z" />
<glyph unicode="p" d="M180 1104l146 18l32 -127q80 72 130.5 97.5t138.5 25.5q78 0 151.5 -30.5t140 -95t107.5 -181.5t41 -270q0 -147 -44 -262t-113.5 -177.5t-143.5 -93.5t-145 -31q-113 0 -234 64v-461h-154v1112q0 254 -53 412zM387 197q113 -90 209 -91q139 0 228 117t89 324 q0 127 -29.5 219t-77.5 137t-93 65.5t-88 20.5q-147 0 -238 -190v-602z" />
<glyph unicode="q" d="M158 541q0 154 41 270.5t107.5 181t140 95t151.5 30.5q88 0 138 -25.5t130 -97.5l33 127l145 -18q-55 -166 -55 -399v-1125h-153v461q-117 -63 -232 -64q-72 0 -145.5 31t-143 93.5t-113.5 177.5t-44 262zM311 547q0 -207 89 -324t229 -117q98 0 207 91v612 q-47 88 -99.5 134t-134.5 46q-45 0 -90 -20.5t-93 -65.5t-78 -137t-30 -219z" />
<glyph unicode="r" d="M279 1096h149l35 -209q74 113 150.5 172t189.5 59q74 0 126 -32.5t78.5 -89t38 -117t11.5 -127.5h-154q0 8 -1 37.5t-2 46t-4 43t-10 43t-18.5 34t-30 25.5t-42.5 8q-104 0 -212 -144.5t-108 -387.5v-457h-153v629q0 260 -43 467z" />
<glyph unicode="s" d="M190 168l84 123q72 -76 169.5 -130.5t187.5 -54.5q82 0 136 44.5t54 123.5q0 51 -16.5 88t-58 64t-66.5 39t-86 35q-76 29 -121 50t-102.5 61t-85 94.5t-27.5 123.5q0 121 98.5 205t239.5 84q178 0 354 -127l-67 -125q-172 123 -293 123q-72 0 -125 -47t-53 -119 q0 -113 211 -190q66 -25 104.5 -41.5t91.5 -48t83 -64.5t51.5 -84t21.5 -114q0 -131 -100.5 -217.5t-233.5 -86.5q-238 1 -451 191z" />
<glyph unicode="t" d="M166 967v129h235v336h154v-336h391v-129h-391v-625q0 -53 3 -84t15.5 -72t43 -60.5t79.5 -19.5q145 0 232 193l147 -37q-133 -285 -383 -285q-145 0 -218 91.5t-73 322.5v576h-235z" />
<glyph unicode="u" d="M233 334v762h154v-717q0 -55 3 -88t13.5 -83t41 -76t77.5 -26q127 0 227.5 141.5t100.5 399.5v449h154v-531q0 -360 47 -565h-146l-35 211q-57 -96 -157.5 -165t-202.5 -69q-137 0 -207 101.5t-70 255.5z" />
<glyph unicode="v" d="M184 1096h160l266 -850l269 850h159l-340 -1110h-174z" />
<glyph unicode="w" d="M72 1096h172l125 -822h4l157 553h150l158 -553h4l125 822h172l-193 -1110h-164l-178 594l-176 -594h-164z" />
<glyph unicode="x" d="M98 0l430 586l-348 510h178l256 -385l250 385h174l-340 -504l432 -592h-194l-324 473l-319 -473h-195z" />
<glyph unicode="y" d="M31 -96l129 67q66 -176 149 -176q86 0 166 185l72 165l-352 951h165l267 -746l284 746h164l-405 -1028l-42.5 -104.5t-53 -104t-69.5 -99t-86 -65.5t-110 -29q-100 0 -173.5 68t-104.5 170z" />
<glyph unicode="z" d="M188 0v113l633 854h-542v129h737v-115l-629 -852h653v-129h-852z" />
<glyph unicode="{" d="M274 662q25 8 70 19t69.5 19.5t52.5 25.5t40 49t12 79v346q0 174 78 247t291 73h112v-58h-67q-260 0 -260 -188v-369q0 -53 -2 -76.5t-10.5 -60.5t-31 -61.5t-59.5 -44.5q37 -20 59.5 -44t31 -61t10.5 -60.5t2 -76.5v-369q0 -188 260 -188h67v-58h-112q-213 0 -291 73 t-78 247v346q0 47 -12 79t-40 49t-51.5 25.5t-69.5 19t-71 18.5z" />
<glyph unicode="|" d="M547 -590v2212h135v-2212h-135z" />
<glyph unicode="}" d="M233 -137h68q260 0 260 188v369q0 53 2 76.5t10.5 60.5t31 60.5t59.5 44.5q-37 20 -59.5 44.5t-31 61.5t-10.5 60.5t-2 76.5v369q0 188 -260 188h-68v58h113q213 0 291 -73t78 -247v-346q0 -47 12 -79t40 -49t52.5 -25.5t69.5 -19.5t69 -19q-25 -8 -70.5 -18.5t-69 -19 t-51.5 -25.5t-40 -49t-12 -79v-346q0 -174 -78 -247t-291 -73h-113v58z" />
<glyph unicode="~" d="M37 616q37 63 63.5 101.5t68.5 83.5t93 66.5t113 21.5q88 0 260 -76t219 -76q72 0 133.5 61.5t95.5 139.5l107 -78q-55 -106 -142 -182t-192 -76q-23 0 -52.5 6t-66.5 18.5t-60 21.5l-65 26l-51 20q-141 59 -186 60q-35 0 -63.5 -11.5t-55.5 -42.5l-40 -47 q-13 -16 -41 -62t-32 -54z" />
<glyph unicode="&#xa0;" />
<glyph unicode="&#xa1;" d="M449 1346q0 66 49 111.5t116.5 45.5t115.5 -45t48 -112.5t-48 -113.5t-115.5 -46t-116.5 46t-49 114zM514 0l29 1026h137l35 -1026h-201z" />
<glyph unicode="&#xa2;" d="M203 754q0 489 385 573v193h153v-191q111 -23 183.5 -77t152.5 -160l-139 -93q-43 82 -86 129.5t-111 67.5v-864q104 31 222 172l104 -109q-160 -166 -326 -194v-262h-153v260q-197 41 -291 190.5t-94 364.5zM356 768q0 -356 232 -432v858q-232 -68 -232 -426z" />
<glyph unicode="&#xa3;" d="M150 750v129h200q-47 150 -47 243q0 158 117 255.5t278 97.5q127 0 233.5 -70t151.5 -184l-143 -47q-82 172 -246 172q-100 0 -172 -68q-66 -59 -65 -172q0 -66 47 -227h409v-129h-370q49 -197 49 -273q0 -55 -17.5 -113.5t-32 -88t-55.5 -107.5q96 18 131 18 q68 0 154 -39q63 -29 117 -28q16 0 33.5 5t35 16.5t28.5 19.5t30.5 25.5t25.5 21.5l88 -98q-111 -119 -229 -119q-59 0 -156 35q-84 33 -147 32q-96 0 -252 -86l-82 105q25 51 76 134t74.5 139.5t23.5 117.5q0 100 -51 283h-237z" />
<glyph unicode="&#xa4;" d="M23 219l223 219q-102 139 -102.5 299t102.5 299l-223 219l67 66l221 -219q131 106 303 106t304 -106l221 219l67 -66l-223 -219q102 -139 102 -298.5t-102 -299.5l223 -219l-67 -65l-221 219q-131 -106 -303.5 -106.5t-303.5 106.5l-221 -219zM223 737q0 -166 113 -278.5 t278.5 -112.5t278.5 112.5t113 278.5t-113 279.5t-278.5 113.5t-278.5 -113.5t-113 -279.5z" />
<glyph unicode="&#xa5;" d="M123 1475h176l281 -666l274 666h176l-377 -852v-31h244v-129h-244v-463h-153v463h-238v129h238v31z" />
<glyph unicode="&#xa6;" d="M547 -358v716h135v-716h-135zM547 666v716h135v-716h-135z" />
<glyph unicode="&#xa7;" d="M203 831q0 74 38 123.5t109 100.5q-66 100 -65 162q0 137 91 211.5t230 74.5q156 0 257.5 -89t82.5 -269h-149q14 229 -185 229q-72 0 -123 -35.5t-51 -103.5q0 -20 4 -39.5t16 -37.5l19 -30q8 -12 28.5 -29.5t29.5 -23.5l32 -24q25 -18 31 -23l121 -90q12 -10 61 -45 t71.5 -52.5t62.5 -53t58.5 -63.5t35 -68t16.5 -81q0 -74 -38 -123t-109 -100q2 -2 12 -18.5t13 -20.5t11.5 -18t10.5 -19.5t8 -18.5t7 -21.5t3 -20.5t2 -25q0 -135 -92 -210.5t-231 -75.5q-156 0 -256.5 90t-81.5 268h147q-14 -229 186 -229q72 0 123.5 35.5t51.5 105.5 q0 25 -8.5 47.5t-16.5 37.5t-29.5 35.5t-32 29t-38.5 28.5l-37 27l-119 90q-10 8 -73.5 53t-89 67.5t-67.5 65.5t-59.5 86t-17.5 90zM356 842q0 -68 74 -127l358 -277q82 37 82 127q0 70 -71 127l-359 279q-84 -41 -84 -129z" />
<glyph unicode="&#xa8;" d="M289 1388.5q0 57.5 42 97.5t99 40t99 -40t42 -97.5t-42 -97.5t-99 -40t-99 40t-42 97.5zM655 1388.5q0 57.5 42 97.5t99.5 40t99.5 -40t42 -97.5t-42 -97.5t-99.5 -40t-99.5 40t-42 97.5z" />
<glyph unicode="&#xa9;" d="M20 737.5q0 317.5 173.5 541.5t420.5 224q246 0 420 -224t174 -541.5t-174 -542t-420 -224.5q-248 0 -421 224.5t-173 542zM174 737q0 -254 128 -433t312 -179q170 0 305.5 180t135.5 432q0 295 -136.5 454t-304.5 159q-174 0 -307 -174.5t-133 -438.5zM311 743 q0 195 88 319t238 124q109 0 185.5 -77t92.5 -210h-141q-8 70 -46 107.5t-93 37.5q-90 0 -136 -86t-46 -210q0 -121 50 -215.5t136 -94.5q53 0 93 46t42 116h141q-10 -137 -88.5 -220t-187.5 -83q-145 0 -236.5 129t-91.5 317z" />
<glyph unicode="&#xaa;" d="M336 532v121h534v-121h-534zM340 1032q0 113 70.5 179.5t183.5 66.5q45 0 106 -14q4 47 -19.5 82.5t-70.5 35.5q-29 0 -61.5 -10t-75.5 -28.5t-63 -24.5l-23 145q156 39 225 39q111 0 167.5 -74.5t56.5 -197.5v-234q0 -100 30 -192l-125 -17l-20 64q-47 -35 -79 -47 t-81 -12q-104 0 -162.5 67.5t-58.5 171.5zM475 1022q0 -43 23.5 -76t64.5 -33q63 0 137 101v121q-63 23 -108 22q-57 0 -87 -39t-30 -96z" />
<glyph unicode="&#xab;" d="M39 729l559 531l96 -99l-458 -432l458 -432l-96 -102zM535 729l559 531l96 -99l-459 -432l459 -432l-94 -102z" />
<glyph unicode="&#xac;" d="M51 791v135h1127v-596h-144v461h-983z" />
<glyph unicode="&#xad;" d="M348 670v129h533v-129h-533z" />
<glyph unicode="&#xae;" d="M20 737.5q0 317.5 173.5 541.5t420.5 224q246 0 420 -224t174 -541.5t-174 -542t-420 -224.5q-248 0 -421 224.5t-173 542zM174 737q0 -254 135 -433t305 -179q49 0 104.5 19.5t116 65.5t108.5 113.5t80 176t32 237.5q0 264 -135.5 438.5t-305.5 174.5t-305 -170.5 t-135 -442.5zM369 322v825h311q135 0 192.5 -57.5t57.5 -194.5q0 -111 -43 -162t-133 -61l155 -350h-145l-143 350h-123v-350h-129zM498 793h184q59 0 89 26.5t30 98.5q0 39 -13.5 62.5t-40 32.5t-45 11t-51.5 2h-153v-233z" />
<glyph unicode="&#xaf;" d="M295 1249v129h637v-129h-637z" />
<glyph unicode="&#xb0;" d="M178 1139q0 180 129 304t307 124q180 0 308.5 -124t128.5 -304q0 -178 -128 -302t-309 -124q-178 0 -307 124t-129 302zM342 1138.5q0 -112.5 80 -191.5t192.5 -79t192.5 79t80 191.5t-80 192.5t-192.5 80t-192.5 -80t-80 -192.5z" />
<glyph unicode="&#xb1;" d="M51 80v135h1127v-135h-1127zM51 774v135h492v486h143v-486h492v-135h-492v-485h-143v485h-492z" />
<glyph unicode="&#xb2;" d="M80 717v45q0 117 46 188.5t150 157.5q45 37 69 58.5t54.5 64.5t30.5 80q0 49 -26.5 77.5t-75.5 28.5q-63 0 -94 -45t-33 -110h-105q4 106 64.5 173.5t167.5 67.5q94 0 149 -52t55 -142q0 -59 -34.5 -113.5t-84.5 -96.5l-102 -85q-51 -43 -88 -97.5t-41 -113.5h353v-86 h-455z" />
<glyph unicode="&#xb3;" d="M45 858l92 53q29 -63 64 -93t98 -30t103 38t40 102q0 84 -48 119.5t-154 37.5v86q66 -4 117 32t51 102q0 49 -36 80.5t-85 31.5q-45 0 -83 -32.5t-59 -79.5l-88 49q35 68 95.5 108.5t134.5 40.5q94 0 158.5 -57t64.5 -150q0 -102 -92 -159q127 -57 127 -199 q0 -104 -69.5 -170t-176.5 -66q-90 0 -146.5 38t-107.5 118z" />
<glyph unicode="&#xb4;" d="M422 1296l362 291l111 -127l-395 -264z" />
<glyph unicode="&#xb5;" d="M238 -471v1567h153v-637q0 -195 65.5 -274t151.5 -79q37 0 73 14.5t74 50.5t61.5 113.5t23.5 188.5v623h153v-1096h-153v92q-82 -115 -222 -115q-145 0 -227 107v-555h-153z" />
<glyph unicode="&#xb6;" d="M98 1065q0 78 24.5 145.5t79 129t159 98.5t247.5 37h535v-129h-94v-1569h-154v1569h-199v-1569h-153v882q-184 -6 -314.5 108t-130.5 298z" />
<glyph unicode="&#xb7;" d="M451 737.5q0 65.5 49 114.5t114.5 49t114.5 -49t49 -114.5t-49 -115t-114.5 -49.5t-114.5 49.5t-49 115z" />
<glyph unicode="&#xb8;" d="M418 -328l45 113q98 -43 162 -43q72 0 71 45q0 29 -30.5 39t-118.5 18q-27 2 -41 4l82 230h131l-47 -141q76 -4 127 -44t51 -114q0 -76 -63.5 -121t-143.5 -45q-94 0 -225 59z" />
<glyph unicode="&#xb9;" d="M109 1350v92l251 78v-725h140v-86h-385v86h143v600z" />
<glyph unicode="&#xba;" d="M322 1147q0 156 73.5 256t218.5 100q137 0 215 -98t78 -256q0 -156 -73.5 -256t-219.5 -100q-135 0 -213.5 96t-78.5 258zM348 532v121h535v-121h-535zM457 1147q0 -59 11 -107.5t49 -87.5t97.5 -39t97.5 39t49 87t11 108q0 236 -157.5 236t-157.5 -236z" />
<glyph unicode="&#xbb;" d="M39 297l459 432l-459 432l96 99l559 -531l-559 -534zM535 297l458 432l-458 432l96 99l561 -531l-561 -534z" />
<glyph unicode="&#xbc;" d="M109 1350v92l251 78v-725h140v-86h-385v86h143v600zM276 0l672 1475h119l-676 -1475h-115zM655 195v63l287 528h121v-505h111v-86h-111v-195h-102v195h-306zM776 281h185v344h-5z" />
<glyph unicode="&#xbd;" d="M109 1350v92l251 78v-725h140v-86h-385v86h143v600zM242 0l671 1475h119l-676 -1475h-114zM698 0v45q0 117 46.5 188.5t150.5 157.5q45 37 68.5 58.5t54.5 64.5t31 80q0 49 -27 77.5t-76 28.5q-63 0 -94 -45t-33 -110h-104q4 106 64.5 173.5t166.5 67.5q94 0 149.5 -52 t55.5 -142q0 -59 -35 -113.5t-85 -96.5l-101 -85q-51 -43 -88 -97.5t-41 -113.5h352v-86h-455z" />
<glyph unicode="&#xbe;" d="M45 858l92 53q29 -63 64 -93t98 -30t103 38t40 102q0 84 -48 119.5t-154 37.5v86q66 -4 117 32t51 102q0 49 -36 80.5t-85 31.5q-45 0 -83 -32.5t-59 -79.5l-88 49q35 68 95.5 108.5t134.5 40.5q94 0 158.5 -57t64.5 -150q0 -102 -92 -159q127 -57 127 -199 q0 -104 -69.5 -170t-176.5 -66q-90 0 -146.5 38t-107.5 118zM270 0l672 1475h119l-676 -1475h-115zM655 195v63l287 528h121v-505h111v-86h-111v-195h-102v195h-306zM776 281h185v344h-5z" />
<glyph unicode="&#xbf;" d="M258 338q0 94 32 155.5t99 120.5l74 62q41 33 54 45t23.5 34.5t10.5 59.5v217h154v-217q0 -90 -35 -142t-148 -136q-59 -45 -84.5 -90.5t-25.5 -114.5q0 -104 58 -168t160.5 -64t158 62.5t55.5 163.5h153q-8 -164 -106 -259.5t-262 -95.5q-170 0 -270.5 98.5 t-100.5 268.5zM446 1346q0 66 49.5 111.5t117 45.5t115.5 -45t48 -112.5t-48 -113.5t-115.5 -46t-117 46t-49.5 114z" />
<glyph unicode="&#xc0;" d="M96 0l520 1597l523 -1597h-166l-131 434h-449l-131 -434h-166zM334 1839l110 127l363 -291l-78 -100zM430 563h375l-189 596z" />
<glyph unicode="&#xc1;" d="M96 0l520 1597l523 -1597h-166l-131 434h-449l-131 -434h-166zM422 1675l362 291l111 -127l-395 -264zM430 563h375l-189 596z" />
<glyph unicode="&#xc2;" d="M96 0l520 1597l523 -1597h-166l-131 434h-449l-131 -434h-166zM248 1657l366 313l367 -313l-80 -88l-287 211l-284 -211zM430 563h375l-189 596z" />
<glyph unicode="&#xc3;" d="M96 0l520 1597l523 -1597h-166l-131 434h-449l-131 -434h-166zM207 1669q47 102 106.5 162.5t153.5 60.5q33 0 67.5 -11t50 -19.5l60.5 -34.5q6 -2 28.5 -16.5t37 -22.5t34 -15.5t33.5 -7.5q31 0 56.5 21.5t35 40t25.5 55.5l125 -51q-29 -84 -91.5 -139.5t-146.5 -55.5 q-74 0 -178 64q-98 63 -141 63q-70 0 -129 -139zM430 563h375l-189 596z" />
<glyph unicode="&#xc4;" d="M96 0l520 1597l523 -1597h-166l-131 434h-449l-131 -434h-166zM289 1767.5q0 57.5 42 97.5t99 40t99 -40t42 -97.5t-42 -97.5t-99 -40t-99 40t-42 97.5zM430 563h375l-189 596zM655 1767.5q0 57.5 42 97.5t99.5 40t99.5 -40t42 -97.5t-42 -97.5t-99.5 -40t-99.5 40 t-42 97.5z" />
<glyph unicode="&#xc5;" d="M96 0l520 1597l523 -1597h-166l-131 434h-449l-131 -434h-166zM428 1798q0 80 57.5 137.5t135 57.5t135 -57.5t57.5 -137.5t-57.5 -137t-135 -57t-135 57t-57.5 137zM430 563h375l-189 596zM557 1798.5q0 -26.5 18.5 -46t45 -19.5t45 19.5t18.5 46t-18.5 46t-45 19.5 t-45 -19.5t-18.5 -46z" />
<glyph unicode="&#xc6;" d="M41 0l408 1475h675v-129h-415v-519h282v-129h-282v-569h432v-129h-586v440h-238l-116 -440h-160zM352 569h203v777h-4z" />
<glyph unicode="&#xc7;" d="M180 729q0 111 10.5 207t41 204.5t82 184.5t141.5 127t209 51q154 0 258 -97t112 -251h-153q-2 94 -62.5 156.5t-152.5 62.5q-332 0 -332 -649q0 -625 317 -625q113 0 179.5 74t68.5 186h154q-12 -172 -107.5 -273t-261.5 -112l-12 -38q76 -4 127 -44t51 -114 q0 -76 -63.5 -121t-143.5 -45q-94 0 -225 59l45 113q98 -43 162 -43q72 0 71 45q0 29 -30.5 39t-118.5 18q-27 2 -41 4l47 134q-373 69 -373 747z" />
<glyph unicode="&#xc8;" d="M285 0v1475h766v-129h-613v-525h441v-129h-441v-563h627v-129h-780zM375 1839l110 127l363 -291l-78 -100z" />
<glyph unicode="&#xc9;" d="M285 0v1475h766v-129h-613v-525h441v-129h-441v-563h627v-129h-780zM422 1675l362 291l111 -127l-395 -264z" />
<glyph unicode="&#xca;" d="M279 1657l366 313l367 -313l-80 -88l-287 211l-285 -211zM285 0v1475h766v-129h-613v-525h441v-129h-441v-563h627v-129h-780z" />
<glyph unicode="&#xcb;" d="M285 0v1475h766v-129h-613v-525h441v-129h-441v-563h627v-129h-780zM319 1767.5q0 57.5 42 97.5t99.5 40t99.5 -40t42 -97.5t-42 -97.5t-99.5 -40t-99.5 40t-42 97.5zM686 1767.5q0 57.5 42 97.5t99.5 40t99.5 -40t42 -97.5t-42 -97.5t-99.5 -40t-99.5 40t-42 97.5z" />
<glyph unicode="&#xcc;" d="M334 1839l110 127l363 -291l-78 -100zM338 0v129h199v1217h-199v129h553v-129h-201v-1217h201v-129h-553z" />
<glyph unicode="&#xcd;" d="M338 0v129h199v1217h-199v129h553v-129h-201v-1217h201v-129h-553zM422 1675l362 291l111 -127l-395 -264z" />
<glyph unicode="&#xce;" d="M248 1657l366 313l367 -313l-80 -88l-287 211l-284 -211zM338 0v129h199v1217h-199v129h553v-129h-201v-1217h201v-129h-553z" />
<glyph unicode="&#xcf;" d="M289 1767.5q0 57.5 42 97.5t99 40t99 -40t42 -97.5t-42 -97.5t-99 -40t-99 40t-42 97.5zM338 0v129h199v1217h-199v129h553v-129h-201v-1217h201v-129h-553zM655 1767.5q0 57.5 42 97.5t99.5 40t99.5 -40t42 -97.5t-42 -97.5t-99.5 -40t-99.5 40t-42 97.5z" />
<glyph unicode="&#xd0;" d="M33 700v129h196v646h375q113 0 196 -35t147.5 -117t98 -228.5t33.5 -357.5q0 -410 -121.5 -573.5t-375.5 -163.5h-353v700h-196zM383 129h188q72 0 120 10.5t96.5 46t76 100t45 177t17.5 274.5q0 164 -19.5 280t-49.5 179.5t-80 98t-95 43t-115 8.5h-184v-517h248v-129 h-248v-571z" />
<glyph unicode="&#xd1;" d="M207 1669q47 102 106.5 162.5t153.5 60.5q33 0 67.5 -11t50 -19.5l60.5 -34.5q6 -2 28.5 -16.5t37 -22.5t34 -15.5t33.5 -7.5q31 0 56.5 21.5t35 40t25.5 55.5l125 -51q-29 -84 -91.5 -139.5t-146.5 -55.5q-74 0 -178 64q-98 63 -141 63q-70 0 -129 -139zM236 0v1475h178 l448 -1102h6v1102h154v-1489h-145l-484 1190l-4 -5v-1171h-153z" />
<glyph unicode="&#xd2;" d="M162 737q0 223 34.5 379t99 237t141.5 115.5t177 34.5q102 0 182.5 -35.5t127.5 -103.5t77.5 -139.5t44 -169t17.5 -165t4 -153.5v-16q0 -68 -1 -111t-9 -129t-24.5 -145.5t-49.5 -134t-80 -120.5t-120.5 -78t-168 -32t-168 34t-120.5 80t-80 124t-49.5 137.5 t-24.5 149.5t-9 131.5t-1 109.5zM315 670q0 -16 2 -79t8 -94l14 -93q9 -60 23.5 -95t38 -80t52 -69.5t70.5 -42t91 -17.5q63 0 112.5 26t93.5 91.5t68.5 196.5t24.5 323v23q4 614 -299 614q-307 0 -299 -616v-21v-67zM375 1839l110 127l363 -291l-78 -100z" />
<glyph unicode="&#xd3;" d="M162 737q0 223 34.5 379t99 237t141.5 115.5t177 34.5q102 0 182.5 -35.5t127.5 -103.5t77.5 -139.5t44 -169t17.5 -165t4 -153.5v-16q0 -68 -1 -111t-9 -129t-24.5 -145.5t-49.5 -134t-80 -120.5t-120.5 -78t-168 -32t-168 34t-120.5 80t-80 124t-49.5 137.5 t-24.5 149.5t-9 131.5t-1 109.5zM315 670q0 -16 2 -79t8 -94l14 -93q9 -60 23.5 -95t38 -80t52 -69.5t70.5 -42t91 -17.5q63 0 112.5 26t93.5 91.5t68.5 196.5t24.5 323v23q4 614 -299 614q-307 0 -299 -616v-21v-67zM422 1675l362 291l111 -127l-395 -264z" />
<glyph unicode="&#xd4;" d="M162 737q0 223 34.5 379t99 237t141.5 115.5t177 34.5q102 0 182.5 -35.5t127.5 -103.5t77.5 -139.5t44 -169t17.5 -165t4 -153.5v-16q0 -68 -1 -111t-9 -129t-24.5 -145.5t-49.5 -134t-80 -120.5t-120.5 -78t-168 -32t-168 34t-120.5 80t-80 124t-49.5 137.5 t-24.5 149.5t-9 131.5t-1 109.5zM248 1657l366 313l367 -313l-80 -88l-287 211l-284 -211zM315 670q0 -16 2 -79t8 -94l14 -93q9 -60 23.5 -95t38 -80t52 -69.5t70.5 -42t91 -17.5q63 0 112.5 26t93.5 91.5t68.5 196.5t24.5 323v23q4 614 -299 614q-307 0 -299 -616v-21v-67 z" />
<glyph unicode="&#xd5;" d="M162 737q0 223 34.5 379t99 237t141.5 115.5t177 34.5q102 0 182.5 -35.5t127.5 -103.5t77.5 -139.5t44 -169t17.5 -165t4 -153.5v-16q0 -68 -1 -111t-9 -129t-24.5 -145.5t-49.5 -134t-80 -120.5t-120.5 -78t-168 -32t-168 34t-120.5 80t-80 124t-49.5 137.5 t-24.5 149.5t-9 131.5t-1 109.5zM207 1669q47 102 106.5 162.5t153.5 60.5q33 0 67.5 -11t50 -19.5l60.5 -34.5q6 -2 28.5 -16.5t37 -22.5t34 -15.5t33.5 -7.5q31 0 56.5 21.5t35 40t25.5 55.5l125 -51q-29 -84 -91.5 -139.5t-146.5 -55.5q-74 0 -178 64q-98 63 -141 63 q-70 0 -129 -139zM315 670q0 -16 2 -79t8 -94l14 -93q9 -60 23.5 -95t38 -80t52 -69.5t70.5 -42t91 -17.5q63 0 112.5 26t93.5 91.5t68.5 196.5t24.5 323v23q4 614 -299 614q-307 0 -299 -616v-21v-67z" />
<glyph unicode="&#xd6;" d="M162 737q0 223 34.5 379t99 237t141.5 115.5t177 34.5q102 0 182.5 -35.5t127.5 -103.5t77.5 -139.5t44 -169t17.5 -165t4 -153.5v-16q0 -68 -1 -111t-9 -129t-24.5 -145.5t-49.5 -134t-80 -120.5t-120.5 -78t-168 -32t-168 34t-120.5 80t-80 124t-49.5 137.5 t-24.5 149.5t-9 131.5t-1 109.5zM289 1767.5q0 57.5 42 97.5t99 40t99 -40t42 -97.5t-42 -97.5t-99 -40t-99 40t-42 97.5zM315 670q0 -16 2 -79t8 -94l14 -93q9 -60 23.5 -95t38 -80t52 -69.5t70.5 -42t91 -17.5q63 0 112.5 26t93.5 91.5t68.5 196.5t24.5 323v23 q4 614 -299 614q-307 0 -299 -616v-21v-67zM655 1767.5q0 57.5 42 97.5t99.5 40t99.5 -40t42 -97.5t-42 -97.5t-99.5 -40t-99.5 40t-42 97.5z" />
<glyph unicode="&#xd7;" d="M51 270l467 467l-467 467l99 99l464 -467l465 467l99 -99l-467 -467l467 -467l-99 -98l-465 467l-464 -467z" />
<glyph unicode="&#xd8;" d="M123 10l117 205q-78 176 -78 522v21q-6 745 452 745q172 0 289 -117l58 101l114 -68l-88 -153q82 -176 82 -529q0 -72 -2 -128t-12.5 -140t-27.5 -147.5t-51 -133t-81 -113.5t-118.5 -74t-162.5 -30q-170 0 -290 121l-86 -149zM315 737q0 -223 25 -346l487 858 q-82 125 -213 125q-63 0 -112 -25.5t-93 -91t-69 -196.5t-25 -324zM401 229q76 -129 213 -129q49 0 89 13.5t81 55.5t69 109.5t45 184.5t17 274q0 217 -26 353z" />
<glyph unicode="&#xd9;" d="M205 469v1006h153v-1088q0 -147 77 -217t179 -70q133 0 193.5 84t60.5 222v1069h154v-1088q0 -197 -122 -306.5t-286 -109.5q-68 0 -132 21.5t-130.5 73t-106.5 156t-40 247.5zM334 1839l110 127l363 -291l-78 -100z" />
<glyph unicode="&#xda;" d="M205 469v1006h153v-1088q0 -147 77 -217t179 -70q133 0 193.5 84t60.5 222v1069h154v-1088q0 -197 -122 -306.5t-286 -109.5q-68 0 -132 21.5t-130.5 73t-106.5 156t-40 247.5zM422 1675l362 291l111 -127l-395 -264z" />
<glyph unicode="&#xdb;" d="M205 469v1006h153v-1088q0 -147 77 -217t179 -70q133 0 193.5 84t60.5 222v1069h154v-1088q0 -197 -122 -306.5t-286 -109.5q-68 0 -132 21.5t-130.5 73t-106.5 156t-40 247.5zM248 1657l366 313l367 -313l-80 -88l-287 211l-284 -211z" />
<glyph unicode="&#xdc;" d="M205 469v1006h153v-1088q0 -147 77 -217t179 -70q133 0 193.5 84t60.5 222v1069h154v-1088q0 -197 -122 -306.5t-286 -109.5q-68 0 -132 21.5t-130.5 73t-106.5 156t-40 247.5zM289 1767.5q0 57.5 42 97.5t99 40t99 -40t42 -97.5t-42 -97.5t-99 -40t-99 40t-42 97.5z M655 1767.5q0 57.5 42 97.5t99.5 40t99.5 -40t42 -97.5t-42 -97.5t-99.5 -40t-99.5 40t-42 97.5z" />
<glyph unicode="&#xdd;" d="M123 1475h170l285 -668l282 668h170l-377 -852v-623h-153v623zM422 1675l362 291l111 -127l-395 -264z" />
<glyph unicode="&#xde;" d="M274 0v1475h154v-289h201q201 0 311.5 -117t110.5 -334q0 -225 -133.5 -334.5t-360.5 -109.5h-129v-291h-154zM428 420h170q137 0 218 81t81 232q0 324 -289 324h-180v-637z" />
<glyph unicode="&#xdf;" d="M279 0v1176q0 119 94 223t250 104q145 0 244.5 -112.5t99.5 -260.5q0 -203 -179 -331q236 -102 236 -387q0 -123 -33 -213t-86 -135.5t-107.5 -66t-111.5 -20.5q-100 0 -197 72l70 113q80 -55 133 -56q66 0 108 50.5t56 109t14 121.5q0 340 -358 334v129q129 -2 215 73.5 t86 202.5q0 100 -57.5 174t-153.5 74q-86 0 -128 -60.5t-42 -201.5v-1112h-153z" />
<glyph unicode="&#xe0;" d="M205 336q0 166 95 280.5t255 114.5q100 0 229 -53v104q0 92 -51 149.5t-137 57.5q-23 0 -48.5 -4t-45 -8t-48 -15.5t-43 -16.5t-47 -19.5t-42.5 -18.5l-35 135q193 76 315 76q152 0 244 -105.5t92 -248.5v-475q0 -162 47 -297l-143 -19l-39 138q-111 -133 -273 -134 q-152 0 -238.5 103.5t-86.5 255.5zM334 1460l110 127l363 -291l-78 -100zM358 328q0 -86 45.5 -154t126.5 -68q55 0 106.5 33t78 63.5t69.5 92.5v254q-121 53 -209 53q-109 0 -163 -79.5t-54 -194.5z" />
<glyph unicode="&#xe1;" d="M205 336q0 166 95 280.5t255 114.5q100 0 229 -53v104q0 92 -51 149.5t-137 57.5q-23 0 -48.5 -4t-45 -8t-48 -15.5t-43 -16.5t-47 -19.5t-42.5 -18.5l-35 135q193 76 315 76q152 0 244 -105.5t92 -248.5v-475q0 -162 47 -297l-143 -19l-39 138q-111 -133 -273 -134 q-152 0 -238.5 103.5t-86.5 255.5zM358 328q0 -86 45.5 -154t126.5 -68q55 0 106.5 33t78 63.5t69.5 92.5v254q-121 53 -209 53q-109 0 -163 -79.5t-54 -194.5zM422 1296l362 291l111 -127l-395 -264z" />
<glyph unicode="&#xe2;" d="M205 336q0 166 95 280.5t255 114.5q100 0 229 -53v104q0 92 -51 149.5t-137 57.5q-23 0 -48.5 -4t-45 -8t-48 -15.5t-43 -16.5t-47 -19.5t-42.5 -18.5l-35 135q193 76 315 76q152 0 244 -105.5t92 -248.5v-475q0 -162 47 -297l-143 -19l-39 138q-111 -133 -273 -134 q-152 0 -238.5 103.5t-86.5 255.5zM248 1278l366 313l367 -313l-80 -88l-287 211l-284 -211zM358 328q0 -86 45.5 -154t126.5 -68q55 0 106.5 33t78 63.5t69.5 92.5v254q-121 53 -209 53q-109 0 -163 -79.5t-54 -194.5z" />
<glyph unicode="&#xe3;" d="M205 336q0 166 95 280.5t255 114.5q100 0 229 -53v104q0 92 -51 149.5t-137 57.5q-23 0 -48.5 -4t-45 -8t-48 -15.5t-43 -16.5t-47 -19.5t-42.5 -18.5l-35 135q193 76 315 76q152 0 244 -105.5t92 -248.5v-475q0 -162 47 -297l-143 -19l-39 138q-111 -133 -273 -134 q-152 0 -238.5 103.5t-86.5 255.5zM207 1290q47 102 106.5 162.5t153.5 60.5q33 0 67.5 -11t50 -19t60.5 -35q6 -2 28.5 -16.5t37 -22.5t34 -15.5t33.5 -7.5q31 0 56.5 22t35 40t25.5 55l125 -51q-29 -84 -91.5 -139.5t-146.5 -55.5q-74 0 -178 64q-98 63 -141 63 q-70 0 -129 -139zM358 328q0 -86 45.5 -154t126.5 -68q55 0 106.5 33t78 63.5t69.5 92.5v254q-121 53 -209 53q-109 0 -163 -79.5t-54 -194.5z" />
<glyph unicode="&#xe4;" d="M205 336q0 166 95 280.5t255 114.5q100 0 229 -53v104q0 92 -51 149.5t-137 57.5q-23 0 -48.5 -4t-45 -8t-48 -15.5t-43 -16.5t-47 -19.5t-42.5 -18.5l-35 135q193 76 315 76q152 0 244 -105.5t92 -248.5v-475q0 -162 47 -297l-143 -19l-39 138q-111 -133 -273 -134 q-152 0 -238.5 103.5t-86.5 255.5zM289 1388.5q0 57.5 42 97.5t99 40t99 -40t42 -97.5t-42 -97.5t-99 -40t-99 40t-42 97.5zM358 328q0 -86 45.5 -154t126.5 -68q55 0 106.5 33t78 63.5t69.5 92.5v254q-121 53 -209 53q-109 0 -163 -79.5t-54 -194.5zM655 1388.5 q0 57.5 42 97.5t99.5 40t99.5 -40t42 -97.5t-42 -97.5t-99.5 -40t-99.5 40t-42 97.5z" />
<glyph unicode="&#xe5;" d="M205 336q0 166 95 280.5t255 114.5q100 0 229 -53v104q0 92 -51 149.5t-137 57.5q-23 0 -48.5 -4t-45 -8t-48 -15.5t-43 -16.5t-47 -19.5t-42.5 -18.5l-35 135q193 76 315 76q152 0 244 -105.5t92 -248.5v-475q0 -162 47 -297l-143 -19l-39 138q-111 -133 -273 -134 q-152 0 -238.5 103.5t-86.5 255.5zM358 328q0 -86 45.5 -154t126.5 -68q55 0 106.5 33t78 63.5t69.5 92.5v254q-121 53 -209 53q-109 0 -163 -79.5t-54 -194.5zM414 1411q0 80 57 137.5t135 57.5t135.5 -57.5t57.5 -137.5t-57.5 -137t-135.5 -57t-135 57t-57 137zM543 1411 q0 -27 18.5 -46t45 -19t45 19t18.5 46t-18.5 46.5t-45 19.5t-45 -19.5t-18.5 -46.5z" />
<glyph unicode="&#xe6;" d="M78 332q0 195 100.5 294t210.5 99q59 0 141 -20v67q0 217 -94 217q-33 0 -70.5 -14t-61 -28.5t-66.5 -43.5t-58 -37l-35 140q184 113 295 112q53 0 86 -14t84 -53q78 68 191 67q41 0 81 -10t88 -45t82.5 -92.5t58.5 -160.5t24 -241v-59h-451v-227q0 -51 5 -84t32 -63 t76 -30t111.5 24t92.5 42l101 59l55 -127q-219 -127 -371 -127q-59 0 -99 16.5t-85 59.5q-86 -76 -217 -76q-145 0 -226 102.5t-81 252.5zM231 326q0 -88 45.5 -154t129.5 -66q45 0 71.5 17.5t37.5 54.5t13 64.5t2 81.5v237q-51 35 -116 35q-96 0 -139.5 -83t-43.5 -187z M684 639h297q0 55 -8 108.5t-27.5 112t-60.5 94t-99 35.5q-55 0 -78.5 -39t-23.5 -131v-180z" />
<glyph unicode="&#xe7;" d="M203 537q0 158 41 274.5t110.5 181t148.5 95t167 30.5q242 0 403 -244l-133 -88q-100 203 -270 203q-131 0 -222.5 -106.5t-91.5 -331.5q0 -233 95.5 -339t222.5 -106q137 0 289 181l104 -109q-90 -98 -178 -148t-203 -53l-14 -40q76 -4 127 -44t51 -114 q0 -76 -63.5 -121t-143.5 -45q-94 0 -225 59l45 113q98 -43 162 -43q72 0 71 45q0 29 -30.5 39t-118.5 18q-27 2 -41 4l51 146q-152 35 -253 167t-101 376z" />
<glyph unicode="&#xe8;" d="M178 541q0 113 26.5 212t80 183t144.5 133t210 49q102 0 183 -44t124 -106.5t70.5 -140t36 -134t8.5 -101.5v-84h-729q10 -401 311 -402q152 0 342 117l66 -137q-242 -109 -420 -109q-117 0 -207 47.5t-142.5 128t-78 179t-25.5 209.5zM330 637h577q-4 143 -80.5 247.5 t-199.5 104.5q-125 0 -194.5 -89t-102.5 -263zM375 1460l110 127l363 -291l-78 -100z" />
<glyph unicode="&#xe9;" d="M178 541q0 113 26.5 212t80 183t144.5 133t210 49q102 0 183 -44t124 -106.5t70.5 -140t36 -134t8.5 -101.5v-84h-729q10 -401 311 -402q152 0 342 117l66 -137q-242 -109 -420 -109q-117 0 -207 47.5t-142.5 128t-78 179t-25.5 209.5zM330 637h577q-4 143 -80.5 247.5 t-199.5 104.5q-125 0 -194.5 -89t-102.5 -263zM422 1296l362 291l111 -127l-395 -264z" />
<glyph unicode="&#xea;" d="M178 541q0 113 26.5 212t80 183t144.5 133t210 49q102 0 183 -44t124 -106.5t70.5 -140t36 -134t8.5 -101.5v-84h-729q10 -401 311 -402q152 0 342 117l66 -137q-242 -109 -420 -109q-117 0 -207 47.5t-142.5 128t-78 179t-25.5 209.5zM248 1278l366 313l367 -313 l-80 -88l-287 211l-284 -211zM330 637h577q-4 143 -80.5 247.5t-199.5 104.5q-125 0 -194.5 -89t-102.5 -263z" />
<glyph unicode="&#xeb;" d="M178 541q0 113 26.5 212t80 183t144.5 133t210 49q102 0 183 -44t124 -106.5t70.5 -140t36 -134t8.5 -101.5v-84h-729q10 -401 311 -402q152 0 342 117l66 -137q-242 -109 -420 -109q-117 0 -207 47.5t-142.5 128t-78 179t-25.5 209.5zM289 1388.5q0 57.5 42 97.5t99 40 t99 -40t42 -97.5t-42 -97.5t-99 -40t-99 40t-42 97.5zM330 637h577q-4 143 -80.5 247.5t-199.5 104.5q-125 0 -194.5 -89t-102.5 -263zM655 1388.5q0 57.5 42 97.5t99.5 40t99.5 -40t42 -97.5t-42 -97.5t-99.5 -40t-99.5 40t-42 97.5z" />
<glyph unicode="&#xec;" d="M254 967v129h465v-1096h-154v967h-311zM334 1460l110 127l363 -291l-78 -100z" />
<glyph unicode="&#xed;" d="M254 967v129h465v-1096h-154v967h-311zM422 1296l362 291l111 -127l-395 -264z" />
<glyph unicode="&#xee;" d="M166 1278l366 313l367 -313l-80 -88l-287 211l-284 -211zM254 967v129h465v-1096h-154v967h-311z" />
<glyph unicode="&#xef;" d="M254 967v129h465v-1096h-154v967h-311zM289 1388.5q0 57.5 42 97.5t99 40t99 -40t42 -97.5t-42 -97.5t-99 -40t-99 40t-42 97.5zM655 1388.5q0 57.5 42 97.5t99.5 40t99.5 -40t42 -97.5t-42 -97.5t-99.5 -40t-99.5 40t-42 97.5z" />
<glyph unicode="&#xf0;" d="M180 547q0 291 129 431t301 140q111 0 226 -102l4 4q-70 158 -222 274l-278 -127l-90 70l270 129q-106 70 -266 109l102 45q150 -18 285 -99l219 99l94 -72l-211 -96q307 -256 308 -721q0 -653 -437 -654q-78 0 -149.5 28t-138 89.5t-106.5 178t-40 274.5zM334 547 q0 -440 280 -441q283 0 283 441q0 442 -283 442q-280 0 -280 -442z" />
<glyph unicode="&#xf1;" d="M178 1096h148l34 -201q59 100 160 161.5t213 61.5q125 0 194.5 -99t69.5 -247v-772h-153v727q0 43 -1 68.5t-8.5 67.5t-20.5 65.5t-39.5 42t-65.5 18.5q-127 0 -227.5 -134t-100.5 -398v-457h-154v551q0 336 -49 545zM186 1290q47 102 106.5 162.5t153.5 60.5 q33 0 68 -11t50.5 -19t60.5 -35q6 -2 28.5 -16.5t37 -22.5t33.5 -15.5t34 -7.5q31 0 56.5 22t34.5 40t25 55l125 -51q-29 -84 -91 -139.5t-146 -55.5q-74 0 -178 64q-98 63 -142 63q-70 0 -129 -139z" />
<glyph unicode="&#xf2;" d="M180 547q0 293 128 432t306 139q111 0 194 -43t128 -105.5t72.5 -146.5t35 -147.5t7.5 -128.5q0 -293 -128 -431.5t-309 -138.5q-78 0 -149.5 28t-138 89.5t-106.5 178t-40 274.5zM334 547q0 -440 280 -441q283 0 283 441q0 442 -283 442q-280 0 -280 -442zM375 1460 l110 127l363 -291l-78 -100z" />
<glyph unicode="&#xf3;" d="M180 547q0 293 128 432t306 139q111 0 194 -43t128 -105.5t72.5 -146.5t35 -147.5t7.5 -128.5q0 -293 -128 -431.5t-309 -138.5q-78 0 -149.5 28t-138 89.5t-106.5 178t-40 274.5zM334 547q0 -440 280 -441q283 0 283 441q0 442 -283 442q-280 0 -280 -442zM422 1296 l362 291l111 -127l-395 -264z" />
<glyph unicode="&#xf4;" d="M180 547q0 293 128 432t306 139q111 0 194 -43t128 -105.5t72.5 -146.5t35 -147.5t7.5 -128.5q0 -293 -128 -431.5t-309 -138.5q-78 0 -149.5 28t-138 89.5t-106.5 178t-40 274.5zM248 1278l366 313l367 -313l-80 -88l-287 211l-284 -211zM334 547q0 -440 280 -441 q283 0 283 441q0 442 -283 442q-280 0 -280 -442z" />
<glyph unicode="&#xf5;" d="M180 547q0 293 128 432t306 139q111 0 194 -43t128 -105.5t72.5 -146.5t35 -147.5t7.5 -128.5q0 -293 -128 -431.5t-309 -138.5q-78 0 -149.5 28t-138 89.5t-106.5 178t-40 274.5zM207 1290q47 102 106.5 162.5t153.5 60.5q33 0 67.5 -11t50 -19t60.5 -35 q6 -2 28.5 -16.5t37 -22.5t34 -15.5t33.5 -7.5q31 0 56.5 22t35 40t25.5 55l125 -51q-29 -84 -91.5 -139.5t-146.5 -55.5q-74 0 -178 64q-98 63 -141 63q-70 0 -129 -139zM334 547q0 -440 280 -441q283 0 283 441q0 442 -283 442q-280 0 -280 -442z" />
<glyph unicode="&#xf6;" d="M180 547q0 293 128 432t306 139q111 0 194 -43t128 -105.5t72.5 -146.5t35 -147.5t7.5 -128.5q0 -293 -128 -431.5t-309 -138.5q-78 0 -149.5 28t-138 89.5t-106.5 178t-40 274.5zM289 1388.5q0 57.5 42 97.5t99 40t99 -40t42 -97.5t-42 -97.5t-99 -40t-99 40t-42 97.5z M334 547q0 -440 280 -441q283 0 283 441q0 442 -283 442q-280 0 -280 -442zM655 1388.5q0 57.5 42 97.5t99.5 40t99.5 -40t42 -97.5t-42 -97.5t-99.5 -40t-99.5 40t-42 97.5z" />
<glyph unicode="&#xf7;" d="M51 670v135h1127v-135h-1127zM502 430q0 45 33.5 79t78.5 34t79 -34t34 -79t-34 -79t-79 -34t-78.5 34t-33.5 79zM502 1044.5q0 45.5 33.5 79t78.5 33.5t79 -33.5t34 -79t-34 -79t-79 -33.5t-78.5 33.5t-33.5 79z" />
<glyph unicode="&#xf8;" d="M180 547q0 293 129 432t307 139q121 0 222 -65l71 116l109 -75l-82 -131q117 -147 117 -416q0 -293 -129 -431.5t-308 -138.5q-129 0 -235 74l-72 -121l-108 74l86 139q-107 146 -107 404zM334 535q0 -139 39 -248l397 651q-66 51 -154 51q-282 1 -282 -454zM451 164 q70 -57 165 -58q283 0 283 453q0 147 -45 266z" />
<glyph unicode="&#xf9;" d="M233 334v762h154v-717q0 -55 3 -88t13.5 -83t41 -76t77.5 -26q127 0 227.5 141.5t100.5 399.5v449h154v-531q0 -360 47 -565h-146l-35 211q-57 -96 -157.5 -165t-202.5 -69q-137 0 -207 101.5t-70 255.5zM334 1460l110 127l363 -291l-78 -100z" />
<glyph unicode="&#xfa;" d="M233 334v762h154v-717q0 -55 3 -88t13.5 -83t41 -76t77.5 -26q127 0 227.5 141.5t100.5 399.5v449h154v-531q0 -360 47 -565h-146l-35 211q-57 -96 -157.5 -165t-202.5 -69q-137 0 -207 101.5t-70 255.5zM422 1296l362 291l111 -127l-395 -264z" />
<glyph unicode="&#xfb;" d="M233 334v762h154v-717q0 -55 3 -88t13.5 -83t41 -76t77.5 -26q127 0 227.5 141.5t100.5 399.5v449h154v-531q0 -360 47 -565h-146l-35 211q-57 -96 -157.5 -165t-202.5 -69q-137 0 -207 101.5t-70 255.5zM248 1278l366 313l367 -313l-80 -88l-287 211l-284 -211z" />
<glyph unicode="&#xfc;" d="M233 334v762h154v-717q0 -55 3 -88t13.5 -83t41 -76t77.5 -26q127 0 227.5 141.5t100.5 399.5v449h154v-531q0 -360 47 -565h-146l-35 211q-57 -96 -157.5 -165t-202.5 -69q-137 0 -207 101.5t-70 255.5zM289 1388.5q0 57.5 42 97.5t99 40t99 -40t42 -97.5t-42 -97.5 t-99 -40t-99 40t-42 97.5zM655 1388.5q0 57.5 42 97.5t99.5 40t99.5 -40t42 -97.5t-42 -97.5t-99.5 -40t-99.5 40t-42 97.5z" />
<glyph unicode="&#xfd;" d="M31 -96l129 67q66 -176 149 -176q86 0 166 185l72 165l-352 951h165l267 -746l284 746h164l-405 -1028l-42.5 -104.5t-53 -104t-69.5 -99t-86 -65.5t-110 -29q-100 0 -173.5 68t-104.5 170zM422 1296l362 291l111 -127l-395 -264z" />
<glyph unicode="&#xfe;" d="M233 -420v1940h154v-504q106 102 240 102q78 0 151.5 -30.5t140 -95t107.5 -181.5t41 -270q0 -147 -44 -262t-113.5 -177.5t-143.5 -93.5t-145 -31q-113 0 -234 64v-461h-154zM387 197q113 -90 209 -91q139 0 228 117t89 324q0 127 -29.5 219t-77.5 137t-93 65.5 t-88 20.5q-147 0 -238 -190v-602z" />
<glyph unicode="&#xff;" d="M31 -96l129 67q66 -176 149 -176q86 0 166 185l72 165l-352 951h165l267 -746l284 746h164l-405 -1028l-42.5 -104.5t-53 -104t-69.5 -99t-86 -65.5t-110 -29q-100 0 -173.5 68t-104.5 170zM289 1388.5q0 57.5 42 97.5t99 40t99 -40t42 -97.5t-42 -97.5t-99 -40t-99 40 t-42 97.5zM655 1388.5q0 57.5 42 97.5t99.5 40t99.5 -40t42 -97.5t-42 -97.5t-99.5 -40t-99.5 40t-42 97.5z" />
<glyph unicode="&#x152;" d="M61 748q0 74 1 114.5t9.5 130.5t25 147.5t50 133.5t80.5 121t123 76.5t172 31.5q72 0 154 -28h534v-129h-415v-519h282v-129h-282v-569h432v-129h-551q-27 -10 -80 -23q-39 -6 -82 -6q-90 0 -161.5 28t-118 69t-80 108.5t-51 129t-27.5 148.5t-12.5 147.5t-2.5 146.5z M215 752q0 -201 21.5 -333t63.5 -199.5t92 -93.5t124 -26q57 0 125 29v1214q-84 31 -125 31q-49 0 -90 -15.5t-82 -56t-67.5 -108.5t-44 -180t-17.5 -262z" />
<glyph unicode="&#x153;" d="M82 546.5q0 153.5 35 270.5t92 179.5t118.5 92t125.5 29.5q61 0 168 -59q88 59 180 59q47 0 96 -18.5t106.5 -66.5t94.5 -158.5t37 -266.5v-98h-449v-227q0 -41 2 -63.5t11.5 -53.5t34 -45.5t63.5 -14.5q49 0 111.5 24t92.5 42l101 59l55 -127q-219 -127 -371 -127 q-98 0 -180 68q-84 -68 -145 -68q-63 0 -126 30t-122 92.5t-95 178t-36 269zM236 547q0 -158 39.5 -263.5t83.5 -141.5t85 -36q51 0 88 58v794q-43 31 -73 31q-33 0 -69 -20.5t-71.5 -66.5t-59 -138t-23.5 -217zM686 639h295q0 55 -8 108.5t-27.5 112t-60.5 94t-99 35.5 q-53 0 -76.5 -39t-23.5 -131v-180z" />
<glyph unicode="&#x178;" d="M123 1475h170l285 -668l282 668h170l-377 -852v-623h-153v623zM248 1767.5q0 57.5 42 97.5t99 40t99 -40t42 -97.5t-42 -97.5t-99 -40t-99 40t-42 97.5zM614 1767.5q0 57.5 42 97.5t99.5 40t99.5 -40t42 -97.5t-42 -97.5t-99.5 -40t-99.5 40t-42 97.5z" />
<glyph unicode="&#x2c6;" d="M248 1278l366 313l367 -313l-80 -88l-287 211l-284 -211z" />
<glyph unicode="&#x2dc;" d="M207 1290q47 102 106.5 162.5t153.5 60.5q33 0 67.5 -11t50 -19t60.5 -35q6 -2 28.5 -16.5t37 -22.5t34 -15.5t33.5 -7.5q31 0 56.5 22t35 40t25.5 55l125 -51q-29 -84 -91.5 -139.5t-146.5 -55.5q-74 0 -178 64q-98 63 -141 63q-70 0 -129 -139z" />
<glyph unicode="&#x2013;" d="M254 670v129h721v-129h-721z" />
<glyph unicode="&#x2014;" d="M0 670v129h1229v-129h-1229z" />
<glyph unicode="&#x2018;" d="M469 1184q0 119 99.5 204t228.5 115v-139q-80 -16 -131 -66q57 -4 96 -44t39 -97q0 -70 -46 -115t-116 -45q-74 0 -122 55.5t-48 131.5z" />
<glyph unicode="&#x2019;" d="M471 1343q0 70 46 115t116 45q74 0 122 -55t48 -131q0 -119 -99.5 -204t-228.5 -116v140q80 16 131 65q-57 4 -96 44t-39 97z" />
<glyph unicode="&#x201a;" d="M449 117q0 70 46 114.5t115 44.5q74 0 122 -55t48 -131q0 -119 -99 -204t-228 -115v139q80 16 131 65q-57 4 -96 44.5t-39 97.5z" />
<glyph unicode="&#x201c;" d="M246 1184q0 119 99 204t228 115v-139q-80 -16 -131 -66q57 -4 96.5 -44t39.5 -97q0 -70 -46.5 -115t-115.5 -45q-74 0 -122 55.5t-48 131.5zM692 1184q0 119 99.5 204t228.5 115v-139q-80 -16 -131 -66q57 -4 96 -44t39 -97q0 -70 -46 -115t-116 -45q-74 0 -122 55.5 t-48 131.5z" />
<glyph unicode="&#x201d;" d="M246 1343q0 70 46 115t116 45q74 0 122 -55t48 -131q0 -119 -99.5 -204t-228.5 -116v140q80 16 131 65q-57 4 -96 44t-39 97zM692 1343q0 70 46 115t116 45q74 0 122 -55t48 -131q0 -119 -99.5 -204t-228.5 -116v140q80 16 131 65q-57 4 -96 44t-39 97z" />
<glyph unicode="&#x201e;" d="M246 117q0 70 46 114.5t116 44.5q74 0 122 -55t48 -131q0 -119 -99.5 -204t-228.5 -115v139q80 16 131 65q-57 4 -96 44.5t-39 97.5zM692 117q0 70 46 114.5t116 44.5q74 0 122 -55t48 -131q0 -119 -99.5 -204t-228.5 -115v139q80 16 131 65q-57 4 -96 44.5t-39 97.5z " />
<glyph unicode="&#x2022;" d="M410 786q0 84 60 141.5t144 57.5t144.5 -57.5t60.5 -141.5t-60.5 -141t-144.5 -57t-144 57t-60 141z" />
<glyph unicode="&#x2026;" d="M57 115q0 61 44 102t105.5 41t104.5 -41t43 -102q0 -59 -44 -101.5t-103 -42.5q-61 0 -105.5 42.5t-44.5 101.5zM467 115q0 61 44 102t105.5 41t104.5 -41t43 -102q0 -59 -44 -101.5t-104 -42.5q-61 0 -105 42.5t-44 101.5zM877 115q0 61 44 102t105 41t104.5 -41 t43.5 -102q0 -59 -44.5 -101.5t-103.5 -42.5q-61 0 -105 42.5t-44 101.5z" />
<glyph unicode="&#x2039;" d="M244 729l559 531l96 -99l-459 -432l459 -432l-96 -102z" />
<glyph unicode="&#x203a;" d="M330 297l458 432l-458 432l96 99l561 -531l-561 -534z" />
<glyph unicode="&#x20ac;" d="M119 555l26 145h88v29q0 43 3 64h-117l26 145h101q12 113 39.5 207t81 178t142.5 132t208 48q154 0 258 -97t112 -251h-153q-2 94 -62.5 156.5t-152.5 62.5q-279 0 -322 -436h432l-26 -145h-414q-2 -27 -2 -68q0 -14 2 -25h397l-26 -145h-365q37 -455 310 -455 q113 0 179 74t68 186h154q-12 -182 -118.5 -285.5t-289.5 -103.5q-410 0 -456 584h-123z" />
<glyph unicode="&#x2122;" d="M10 1409v111h484v-111h-175v-459h-135v459h-174zM563 950v570h199l129 -336l127 336h199v-570h-123v459h-4l-162 -459h-74l-166 459h-2v-459h-123z" />
<glyph unicode="&#xe000;" horiz-adv-x="1095" d="M0 1095h1095v-1095h-1095v1095z" />
<glyph unicode="&#xfb01;" d="M68 969v129h202v65q0 154 99.5 247t234.5 93q31 0 66 -5t59.5 -10t63 -18.5l55 -19.5t62.5 -26l57 -23v-170q-25 12 -80.5 43t-92 49t-88 34.5t-92.5 16.5q-190 0 -190 -223v-53h563v-1098h-153v969h-410v-969h-154v969h-202z" />
<glyph unicode="&#xfb02;" d="M61 969v129h203v65q0 154 99.5 247t234.5 93q145 0 416 -123v-1380h-154v1288l-46 23l-51 24q-17 8 -46 18.5t-53.5 15.5t-49.5 5q-102 0 -149 -57t-47 -152v-67h297v-129h-297v-969h-154v969h-203z" />
<glyph unicode="&#xfb03;" horiz-adv-x="3686" d="M2712 967v129h465v-1096h-154v967h-311zM2966 1374.5q0 55.5 38 92t91 36.5t91 -36.5t38 -92t-38 -92.5t-91 -37t-91 37t-38 92.5zM1426 897v129h272v104q0 182 101.5 277.5t236.5 95.5q123 0 289 -76v-155q-18 8 -82 39.5t-109 47t-88 15.5q-195 0 -194 -225v-123h352 v-129h-352v-897h-154v897h-272zM197 897v129h272v104q0 182 101.5 277.5t236.5 95.5q123 0 289 -76v-155q-18 8 -82 39.5t-109 47t-88 15.5q-195 0 -194 -225v-123h352v-129h-352v-897h-154v897h-272z" />
<glyph unicode="&#xfb04;" horiz-adv-x="3686" d="M2696 1391v129h464v-1520h-153v1391h-311zM1426 897v129h272v104q0 182 101.5 277.5t236.5 95.5q123 0 289 -76v-155q-18 8 -82 39.5t-109 47t-88 15.5q-195 0 -194 -225v-123h352v-129h-352v-897h-154v897h-272zM197 897v129h272v104q0 182 101.5 277.5t236.5 95.5 q123 0 289 -76v-155q-18 8 -82 39.5t-109 47t-88 15.5q-195 0 -194 -225v-123h352v-129h-352v-897h-154v897h-272z" />
</font>
</defs>
</svg>
