<?xml version="1.0" standalone="no"?>
<!DOCTYPE svg PUBLIC "-//W3C//DTD SVG 1.1//EN" "http://www.w3.org/Graphics/SVG/1.1/DTD/svg11.dtd" >
<svg xmlns="http://www.w3.org/2000/svg">
<metadata>
This is a custom SVG webfont generated by Font Squirrel.
Copyright   :  ITC Franklin Gothic is a trademark of The International Typeface Corporation which may be registered in certain jurisdictions Portions copyright Microsoft Corporation  All rights reserved
Designer    : Victor Caruso
Foundry     : International Typeface Corporation
Foundry URL : httpwwwitcfontscom
</metadata>
<defs>
<font id="FranklinGothicBookRegular" horiz-adv-x="1201" >
<font-face units-per-em="2048" ascent="1638" descent="-410" />
<missing-glyph horiz-adv-x="512" />
<glyph unicode=" "  horiz-adv-x="512" />
<glyph unicode="&#x09;" horiz-adv-x="512" />
<glyph unicode="&#xa0;" horiz-adv-x="512" />
<glyph unicode="!" horiz-adv-x="550" d="M157 1365h236l-78 -1025h-84zM171 0v212h209v-212h-209z" />
<glyph unicode="&#x22;" horiz-adv-x="647" d="M106 1365h160l-30 -528h-100zM382 1365h159l-30 -528h-100z" />
<glyph unicode="#" d="M64 433l22 123h218l51 286h-219l22 123h219l71 400h130l-71 -400h287l72 400h130l-71 -400h211l-21 -123h-210l-50 -286h209l-21 -123h-211l-77 -433h-130l77 433h-290l-77 -433h-130l77 433h-218zM435 556h288l50 286h-288z" />
<glyph unicode="$" d="M96 356l135 53q78 -211 293 -229v464q-233 56 -302.5 146t-69.5 200q0 290 372 352v165h122v-165q295 -26 387 -264l-136 -44q-55 163 -251 176v-428q413 -74 413 -372q0 -128 -94 -237.5t-319 -129.5v-193h-122v193q-334 36 -428 313zM298 1008q0 -165 226 -208v410 q-103 -8 -164.5 -63t-61.5 -139zM646 180q122 5 190.5 67t68.5 149q0 185 -259 221v-437z" />
<glyph unicode="%" horiz-adv-x="1475" d="M75 1025q0 149 73 251.5t206 102.5q141 0 212.5 -108t71.5 -250q0 -141 -74 -246.5t-207 -105.5q-131 0 -206.5 104t-75.5 252zM182 1029q0 -281 177 -281q86 0 128.5 75t42.5 189q0 127 -43.5 208t-133.5 81q-171 0 -171 -272zM262 0l827 1365h124l-825 -1365h-126z M838 343q0 148 72.5 250.5t206.5 102.5q140 0 211 -108t71 -250q0 -140 -73.5 -246t-205.5 -106q-133 0 -207.5 105t-74.5 252zM943 346q0 -280 179 -280q86 0 128.5 74t42.5 189q0 123 -43 206.5t-134 83.5q-173 0 -173 -273z" />
<glyph unicode="&#x26;" horiz-adv-x="1365" d="M89 378q0 134 89.5 247.5t264.5 170.5q-132 189 -132 311q0 116 83 201t221 85q140 0 229.5 -79t89.5 -213q0 -218 -287 -354l288 -436q140 177 185 436l146 -31q-61 -295 -251 -511q65 -71 146 -71q37 0 130 10v-144q-91 -15 -148 -15q-42 0 -89.5 15t-138.5 109 q-162 -136 -366 -136q-207 0 -333.5 118.5t-126.5 286.5zM260 385q0 -145 92.5 -214t215.5 -69q156 0 269 109l-328 482q-142 -61 -195.5 -131.5t-53.5 -176.5zM458 1118q0 -88 120 -273q161 89 194 143t33 104q0 71 -51 122.5t-130 51.5q-72 0 -119 -45.5t-47 -102.5z" />
<glyph unicode="'" horiz-adv-x="371" d="M106 1365h160l-30 -528h-100z" />
<glyph unicode="(" horiz-adv-x="601" d="M107 514q0 448 294 851h105q-253 -377 -253 -853q0 -454 253 -853h-105q-294 386 -294 855z" />
<glyph unicode=")" horiz-adv-x="601" d="M95 -341q253 377 253 853q0 454 -253 853h104q295 -386 295 -855q0 -448 -295 -851h-104z" />
<glyph unicode="*" d="M160 1000l46 144l355 -155l-38 376h154l-37 -376l354 155l47 -144l-388 -76l257 -282l-126 -88l-184 324l-183 -324l-126 88l256 282z" />
<glyph unicode="+" d="M123 615v138h403v421h150v-421h403v-138h-403v-421h-150v421h-403z" />
<glyph unicode="," horiz-adv-x="512" d="M131 -257l118 257h-102v228h218v-205l-149 -280h-85z" />
<glyph unicode="-" horiz-adv-x="512" d="M30 451v122h452v-122h-452z" />
<glyph unicode="." horiz-adv-x="512" d="M145 0v224h223v-224h-223z" />
<glyph unicode="/" horiz-adv-x="930" d="M-96 -341l824 1706h134l-824 -1706h-134z" />
<glyph unicode="0" d="M84 685q0 298 134 503t379 205q256 0 388.5 -214t132.5 -502q0 -282 -136 -493t-380 -211q-236 0 -377 204.5t-141 507.5zM257 690q0 -266 88 -424.5t258 -158.5q173 0 256 156.5t83 393.5q0 259 -85 431t-262 172q-171 0 -254.5 -157t-83.5 -413z" />
<glyph unicode="1" d="M188 0v127h410v1054q-181 -189 -376 -295v172q269 141 417 335h122v-1266h383v-127h-956z" />
<glyph unicode="2" d="M106 0v142q574 430 684.5 566.5t110.5 270.5q0 125 -93 202t-214 77q-125 0 -221 -84.5t-108 -229.5l-159 48q100 401 490 401q211 0 343 -120t132 -293q0 -119 -62.5 -229t-236.5 -263t-450 -346h753v-142h-969z" />
<glyph unicode="3" d="M60 306l159 53q72 -247 355 -247q184 0 264.5 78.5t80.5 187.5q0 118 -96.5 191t-270.5 73h-156v136h156q171 0 244.5 70t73.5 170q0 110 -82 174.5t-206 64.5q-230 0 -318 -222l-154 44q132 314 488 314q200 0 323 -106.5t123 -256.5q0 -116 -74 -202.5t-190 -108.5 q130 -19 223.5 -109t93.5 -233q0 -171 -139 -287.5t-381 -116.5q-192 0 -328.5 91t-188.5 242z" />
<glyph unicode="4" d="M63 325v115l626 954h214v-934h221v-135h-221v-325h-165v325h-675zM241 460h497v646q0 70 3 151q-43 -79 -74 -128z" />
<glyph unicode="5" d="M88 296l146 50q90 -238 338 -238q163 0 259 96.5t96 246.5q0 157 -95 245t-228 88q-194 0 -321 -186l-135 29l44 738h809l-14 -147h-671l-29 -443q152 149 334 149q192 0 331.5 -133t139.5 -340q0 -210 -151.5 -344t-370.5 -134q-172 0 -306 90t-176 233z" />
<glyph unicode="6" d="M104 652q0 307 135.5 524t419.5 217q327 0 438 -307l-154 -42q-79 208 -288 208q-384 0 -393 -635q61 141 173 209t237 68q190 0 318.5 -132.5t128.5 -317.5q0 -192 -136.5 -331.5t-349.5 -139.5q-242 0 -385.5 182.5t-143.5 496.5zM301 425q0 -123 92 -219t237 -96 t237.5 95.5t92.5 229.5q0 132 -90.5 226.5t-224.5 94.5q-138 0 -241 -99t-103 -232z" />
<glyph unicode="7" d="M141 1215l17 150h902v-102q-244 -294 -365 -612t-121 -604q0 -16 1 -47h-176q0 343 140 667.5t343 547.5h-741z" />
<glyph unicode="8" d="M74 353q0 231 325 355q-259 113 -259 328q0 156 129 256.5t342 100.5q210 0 334 -96.5t124 -252.5q0 -217 -265 -311q214 -99 268.5 -191t54.5 -184q0 -164 -139.5 -274.5t-378.5 -110.5q-255 0 -395 112.5t-140 267.5zM241 347q0 -108 94.5 -176.5t278.5 -68.5 q156 0 251 67t95 171q0 199 -373 296q-346 -82 -346 -289zM313 1051q0 -96 93.5 -166t199.5 -92q172 46 243 106t71 150q0 105 -84.5 159.5t-222.5 54.5q-132 0 -216 -57.5t-84 -154.5z" />
<glyph unicode="9" d="M84 923q0 194 135.5 332t345.5 138q257 0 394 -180.5t137 -496.5q0 -332 -145 -537.5t-413 -205.5q-313 0 -421 276l137 50q85 -189 286 -189q195 0 293.5 164t101.5 445q-134 -246 -403 -246q-190 0 -319 129.5t-129 320.5zM249 926q0 -146 96.5 -231t224.5 -85 q141 0 236.5 98.5t95.5 230.5q0 128 -90.5 220t-238.5 92q-150 0 -237 -94.5t-87 -230.5z" />
<glyph unicode=":" horiz-adv-x="512" d="M145 0v225h223v-225h-223zM145 786v224h223v-224h-223z" />
<glyph unicode=";" horiz-adv-x="512" d="M131 -255l117 255h-102v228h219v-205l-151 -278h-83zM146 789v221h219v-221h-219z" />
<glyph unicode="&#x37e;" horiz-adv-x="512" d="M131 -255l117 255h-102v228h219v-205l-151 -278h-83zM146 789v221h219v-221h-219z" />
<glyph unicode="&#x3c;" d="M137 610v133l887 416v-152l-723 -331l723 -331v-151z" />
<glyph unicode="=" d="M123 468v138h956v-138h-956zM123 793v138h956v-138h-956z" />
<glyph unicode="&#x3e;" d="M177 194v152l724 331l-724 331v151l887 -417v-132z" />
<glyph unicode="?" horiz-adv-x="1035" d="M41 990q75 403 467 403q200 0 323 -109.5t123 -280.5q0 -223 -256 -356q-112 -59 -137 -92.5t-25 -104.5l1 -110h-144q1 156 4.5 194.5t21.5 77t40.5 60t106.5 68.5q91 51 125.5 79.5t60 79t25.5 110.5q0 114 -82.5 179t-194.5 65q-254 0 -310 -295zM369 0v197h202v-197 h-202z" />
<glyph unicode="@" horiz-adv-x="1526" d="M82 682q0 304 208 507.5t503 203.5q278 0 464.5 -176.5t186.5 -432.5q0 -197 -100.5 -347.5t-244.5 -150.5q-118 0 -160 122q-94 -126 -225 -126q-134 0 -224.5 106t-90.5 267q0 176 103 290t250 114q140 0 215 -116l12 99h134l-56 -467q-6 -52 -6 -90q0 -69 67 -69 q75 0 139 106t64 249q0 226 -153.5 362t-379.5 136q-235 0 -404 -168.5t-169 -419.5q0 -235 160 -408.5t447 -173.5q227 0 448 113l44 -121q-234 -118 -492 -118q-341 0 -540.5 209.5t-199.5 499.5zM554 650q0 -107 49.5 -171t119.5 -64q87 0 151.5 89.5t64.5 207.5 q0 96 -51 155t-123 59q-86 0 -148.5 -77t-62.5 -199z" />
<glyph unicode="A" horiz-adv-x="1097" d="M7 0l443 1365h195l445 -1365h-175l-138 399h-505l-122 -399h-143zM319 527h422l-210 656z" />
<glyph unicode="B" horiz-adv-x="1238" d="M171 0v1365h540q204 0 302.5 -100t98.5 -232q0 -232 -242 -308q144 -37 214 -132t70 -215q0 -161 -108.5 -269.5t-334.5 -108.5h-540zM336 150h366q134 0 207 65t73 169q0 73 -33 135.5t-93 96.5t-179 34h-341v-500zM336 780h297q185 0 247 70.5t62 165.5q0 94 -66.5 152 t-198.5 58h-341v-446z" />
<glyph unicode="C" horiz-adv-x="1186" d="M85 696q0 315 154 506t413 191q384 0 493 -439l-161 -32q-88 326 -333 326q-181 0 -280.5 -151.5t-99.5 -425.5q0 -251 102 -402.5t270 -151.5q261 0 346 342l156 -35q-112 -451 -506 -451q-259 0 -406.5 209t-147.5 514z" />
<glyph unicode="D" horiz-adv-x="1325" d="M171 0v1365h458q289 0 450 -197t161 -482q0 -289 -157 -487.5t-398 -198.5h-514zM342 145h277q220 0 334 152t114 401q0 202 -108.5 363t-339.5 161h-277v-1077z" />
<glyph unicode="E" horiz-adv-x="1122" d="M171 0v1365h864v-150h-693v-434h550v-139h-550v-492h712v-150h-883z" />
<glyph unicode="F" horiz-adv-x="1040" d="M171 0v1365h836v-150h-665v-431h551v-138h-551v-646h-171z" />
<glyph unicode="G" horiz-adv-x="1325" d="M85 669q0 310 159 517t432 207q377 0 492 -396l-162 -39q-35 152 -131 221t-210 69q-202 0 -298 -163t-96 -409q0 -265 107.5 -414.5t292.5 -149.5q144 0 240.5 95.5t96.5 263.5q0 31 -2 74h-338v143h514v-706h-105l-47 171q-126 -180 -375 -180q-270 0 -420 203 t-150 493z" />
<glyph unicode="H" horiz-adv-x="1316" d="M171 0v1365h171v-565h633v565h171v-1365h-171v650h-633v-650h-171z" />
<glyph unicode="I" horiz-adv-x="512" d="M171 0v1365h171v-1365h-171z" />
<glyph unicode="J" horiz-adv-x="765" d="M0 0v140q98 -20 178 -20q114 0 168 34t72.5 88t18.5 175v948h171v-948q0 -248 -112 -346t-297 -98q-99 0 -199 27z" />
<glyph unicode="K" horiz-adv-x="1287" d="M171 0v1365h171v-792l617 792h185l-370 -478l476 -887h-187l-408 753l-313 -389v-364h-171z" />
<glyph unicode="L" horiz-adv-x="1003" d="M171 0v1365h175v-1215h631v-150h-806z" />
<glyph unicode="M" horiz-adv-x="1659" d="M171 0v1365h254l411 -1092l403 1092h250v-1365h-166v1192l-444 -1192h-116l-447 1192v-1192h-145z" />
<glyph unicode="N" horiz-adv-x="1346" d="M171 0v1365h214l660 -1113l-2 95q-2 56 -2 99v919h135v-1365h-166l-706 1190l2 -90q3 -51 3 -86v-1014h-138z" />
<glyph unicode="O" horiz-adv-x="1292" d="M85 679q0 310 154 512t408 202q253 0 406 -198.5t153 -500.5q0 -290 -148.5 -505.5t-415.5 -215.5q-263 0 -410 204.5t-147 501.5zM264 678q0 -251 104 -408.5t278 -157.5q179 0 280 163t101 420q0 264 -104.5 411t-277.5 147q-175 0 -278 -159t-103 -416z" />
<glyph unicode="P" horiz-adv-x="1145" d="M171 0v1365h484q227 0 335 -123.5t108 -281.5q0 -176 -117.5 -291t-307.5 -115h-331v-554h-171zM342 696h314q121 0 195 72.5t74 191.5q0 102 -66 182t-191 80h-326v-526z" />
<glyph unicode="Q" horiz-adv-x="1292" d="M85 673q0 318 155 519t406 201q245 0 402.5 -192t157.5 -507q0 -262 -118 -459t-302 -245l-1 -19q0 -151 182 -151q87 0 157 13v-137q-68 -21 -141 -21q-157 0 -241.5 66.5t-94.5 231.5q-263 0 -412.5 200.5t-149.5 499.5zM264 678q0 -251 104 -408.5t278 -157.5 q179 0 280 163t101 420q0 264 -104.5 411t-277.5 147q-175 0 -278 -159t-103 -416z" />
<glyph unicode="R" horiz-adv-x="1255" d="M171 0v1365h538q219 0 324.5 -119.5t105.5 -261.5q0 -109 -59 -209t-195 -143l268 -632h-179l-252 591h-391v-591h-160zM331 730h357q141 0 210.5 74.5t69.5 182.5t-73.5 168t-185.5 60h-378v-485z" />
<glyph unicode="S" horiz-adv-x="1166" d="M21 363l154 35q93 -279 403 -279q162 0 244 68.5t82 183.5q0 87 -62.5 140t-144.5 73l-273 68q-106 27 -173.5 65.5t-114.5 118.5t-47 183q0 171 129 272.5t331 101.5q372 0 489 -337l-155 -46q-27 120 -127 181.5t-213 61.5q-112 0 -199.5 -59t-87.5 -167 q0 -151 222 -204l255 -61q350 -84 350 -377q0 -177 -131.5 -294.5t-370.5 -117.5q-424 0 -560 390z" />
<glyph unicode="T" horiz-adv-x="994" d="M21 1215v150h953v-150h-392v-1215h-170v1215h-391z" />
<glyph unicode="U" horiz-adv-x="1241" d="M150 474v891h171v-891q0 -159 37 -224t112 -96t157 -31q158 0 240 83t82 268v891h142v-891q0 -268 -131.5 -384.5t-344.5 -116.5q-237 0 -351 120t-114 381z" />
<glyph unicode="V" horiz-adv-x="1099" d="M7 1365h178l381 -1126l377 1126h149l-460 -1365h-165z" />
<glyph unicode="W" horiz-adv-x="1674" d="M39 1365h177l273 -1106l290 1106h138l313 -1106l255 1106h150l-329 -1365h-171l-298 1059l-277 -1059h-175z" />
<glyph unicode="X" horiz-adv-x="1065" d="M5 0l437 706l-389 659h191l299 -504l306 504h156l-383 -625l438 -740h-193l-345 582l-358 -582h-159z" />
<glyph unicode="Y" horiz-adv-x="1045" d="M-20 1365h201l363 -628l365 628h156l-457 -791v-574h-171v574z" />
<glyph unicode="Z" horiz-adv-x="1066" d="M56 0v146l741 1071h-707v139h907v-114l-750 -1096h772v-146h-963z" />
<glyph unicode="[" horiz-adv-x="601" d="M162 -341v1706h354v-105h-217v-1496h217v-105h-354z" />
<glyph unicode="\" horiz-adv-x="930" d="M68 1365h134l824 -1706h-134z" />
<glyph unicode="]" horiz-adv-x="601" d="M85 -236h217v1496h-217v105h354v-1706h-354v105z" />
<glyph unicode="^" horiz-adv-x="1024" d="M50 745l361 624h201l362 -624h-167l-297 503l-295 -503h-165z" />
<glyph unicode="_" horiz-adv-x="1024" d="M0 -136h1024v-137h-1024v137z" />
<glyph unicode="`" horiz-adv-x="1024" d="M188 1356l62 120l395 -228l-42 -81z" />
<glyph unicode="a" horiz-adv-x="1083" d="M68 279q0 153 130 251.5t442 98.5q42 0 134 -4q0 120 -18.5 173.5t-78.5 85.5t-158 32q-239 0 -278 -182l-145 25q53 279 446 279q209 0 296.5 -92.5t87.5 -320.5v-429q0 -107 22 -196h-156q-9 48 -18 182q-104 -209 -354 -209q-170 0 -261 90t-91 216zM236 272 q0 -74 55.5 -126t160.5 -52q142 0 233.5 103t91.5 242q0 28 -3 66q-96 6 -146 6q-186 0 -289 -61t-103 -178z" />
<glyph unicode="b" horiz-adv-x="1100" d="M157 0v1365h157v-523q108 196 298 196q174 0 291.5 -137t117.5 -398q0 -225 -115.5 -377.5t-300.5 -152.5q-206 0 -316 194l-56 -167h-76zM314 396q11 -155 95.5 -225t178.5 -70q120 0 193.5 104t73.5 285q0 195 -71 306.5t-197 111.5q-99 0 -178.5 -79.5t-94.5 -205.5 v-227z" />
<glyph unicode="c" horiz-adv-x="954" d="M78 503q0 230 115.5 382.5t314.5 152.5q165 0 264.5 -98.5t123.5 -254.5l-142 -27q-40 250 -242 250q-130 0 -200 -110.5t-70 -286.5q0 -194 69.5 -301.5t195.5 -107.5q195 0 247 252l142 -25q-30 -167 -133 -261.5t-257 -94.5q-209 0 -318.5 154t-109.5 376z" />
<glyph unicode="d" horiz-adv-x="1103" d="M79 497q0 232 113 386.5t300 154.5q182 0 297 -166v493h157v-1365h-143v173q-106 -200 -319 -200q-177 0 -291 148.5t-114 375.5zM251 517q0 -203 69.5 -309t190.5 -106q110 0 194 92t84 216v210q0 133 -81 213t-189 80q-117 0 -192.5 -104t-75.5 -292z" />
<glyph unicode="e" horiz-adv-x="1066" d="M78 500q0 241 133 389.5t334 148.5q198 0 318.5 -137t123.5 -410h-734q0 -229 96 -309t203 -80q193 0 272 199l146 -30q-40 -129 -156 -213.5t-273 -84.5q-207 0 -335 145.5t-128 381.5zM260 608h555q-2 85 -28 151t-88 112.5t-149 46.5q-117 0 -198.5 -84t-91.5 -226z " />
<glyph unicode="f" horiz-adv-x="614" d="M7 887v123h172q4 243 93.5 313t218.5 70q63 0 144 -14v-125q-51 13 -97 13q-103 0 -152.5 -45.5t-49.5 -170.5v-41h240v-123h-240v-887h-157v887h-172z" />
<glyph unicode="g" horiz-adv-x="1006" d="M52 -115q0 147 154 202q-99 65 -99 163q0 117 140 179q-131 106 -131 267q0 150 112 246t273 96q114 0 207 -43q15 99 69.5 137t165.5 38q11 0 39 -2v-125q-108 0 -144.5 -25t-48.5 -90q97 -112 97 -244q0 -138 -105.5 -237t-283.5 -99q-40 0 -69 6q-55 11 -69 11 q-27 0 -65 -26.5t-38 -68.5q0 -60 55 -78t259 -23q173 -5 255.5 -23.5t139.5 -82t57 -155.5q0 -289 -508 -289q-241 0 -351.5 72.5t-110.5 193.5zM204 -98q0 -77 90.5 -119.5t230.5 -42.5q130 0 238 36.5t108 123.5q0 47 -32 77t-87.5 38t-193.5 12q-165 4 -244 14 q-110 -48 -110 -139zM277 687q0 -98 62 -158.5t163 -60.5q100 0 163 61.5t63 159.5q0 100 -65.5 163.5t-158.5 63.5q-89 0 -158 -59.5t-69 -169.5z" />
<glyph unicode="h" horiz-adv-x="1106" d="M157 0v1365h157v-541q107 214 306 214q89 0 158.5 -35t106.5 -92t50.5 -112.5t13.5 -185.5v-613h-157v613q0 108 -13.5 162t-64 93.5t-116.5 39.5q-121 0 -202.5 -99t-81.5 -265v-544h-157z" />
<glyph unicode="i" horiz-adv-x="470" d="M150 1191v174h169v-174h-169zM157 0v1010h157v-1010h-157z" />
<glyph unicode="j" horiz-adv-x="469" d="M-124 -204q65 -16 115 -16q89 0 127.5 42.5t38.5 146.5v1052h157v-1052q0 -178 -84.5 -248t-206.5 -70q-60 0 -147 21v124zM144 1191v174h178v-174h-178z" />
<glyph unicode="k" horiz-adv-x="1026" d="M157 0v1365h157v-874l469 519h168l-316 -355l356 -655h-163l-295 564l-219 -252v-312h-157z" />
<glyph unicode="l" horiz-adv-x="471" d="M157 0v1365h157v-1365h-157z" />
<glyph unicode="m" horiz-adv-x="1667" d="M157 0v1010h135v-194q113 222 311 222q109 0 185 -71t98 -171q104 242 319 242q103 0 180.5 -59t101 -135.5t23.5 -215.5v-628h-153v628q0 97 -13.5 145.5t-65.5 89t-117 40.5q-90 0 -173.5 -82.5t-83.5 -251.5v-569h-152v665q0 133 -63.5 188t-133.5 55q-100 0 -174 -86 t-74 -218v-604h-150z" />
<glyph unicode="n" horiz-adv-x="1110" d="M157 0v1010h146v-186q123 214 319 214q113 0 192.5 -58.5t109 -131.5t29.5 -264v-584h-147v649q0 140 -61 197t-148 57q-120 0 -201.5 -96t-81.5 -253v-554h-157z" />
<glyph unicode="o" horiz-adv-x="1064" d="M78 509q0 241 131 385t326 144q209 0 329.5 -151.5t120.5 -378.5q0 -236 -130 -385.5t-336 -149.5q-208 0 -324.5 154t-116.5 382zM250 510q0 -219 81 -313.5t200 -94.5q120 0 201 99t81 308q0 210 -85 304.5t-199 94.5q-117 0 -198 -95.5t-81 -302.5z" />
<glyph unicode="p" horiz-adv-x="1094" d="M157 -341v1351h141v-196q107 224 319 224q179 0 289 -149.5t110 -378.5q0 -247 -113 -392t-290 -145q-190 0 -299 181v-495h-157zM314 367q15 -115 97 -190t171 -75q103 0 182.5 90t79.5 311q0 191 -72 294.5t-191 103.5q-94 0 -168.5 -73t-98.5 -177v-284z" />
<glyph unicode="q" horiz-adv-x="1097" d="M78 497q0 235 114 388t300 153q88 0 160.5 -35t146.5 -158l62 179h79v-1365h-157v525q-99 -211 -305 -211q-172 0 -286 138.5t-114 385.5zM250 504q0 -178 69.5 -287.5t190.5 -109.5q122 0 197.5 104.5t75.5 238.5v134q-13 178 -95.5 251t-174.5 73q-117 0 -190 -111 t-73 -293z" />
<glyph unicode="r" horiz-adv-x="675" d="M157 0v1010h138v-236q73 167 146.5 216.5t150.5 49.5q24 0 62 -4v-150h-32q-130 0 -216 -97t-92 -255v-534h-157z" />
<glyph unicode="s" horiz-adv-x="950" d="M21 262l150 31q50 -191 316 -191q98 0 166 44t68 124q0 119 -173 151l-213 40q-125 24 -199 94t-74 185q0 127 101 212.5t272 85.5q329 0 406 -257l-144 -31q-62 158 -255 158q-96 0 -157.5 -39.5t-61.5 -110.5q0 -112 157 -141l197 -35q309 -56 309 -299 q0 -139 -115 -224.5t-306 -85.5q-359 0 -444 289z" />
<glyph unicode="t" horiz-adv-x="630" d="M-1 887v123h179l7 254l146 14v-268h226v-123h-226v-634q0 -156 162 -156q54 0 122 11v-124q-83 -11 -144 -11q-293 0 -293 306v608h-179z" />
<glyph unicode="u" horiz-adv-x="1109" d="M157 365v645h157v-645q0 -150 62.5 -206.5t137.5 -56.5q76 0 137.5 43t102.5 122.5t41 173.5v569h157v-1010h-141v193q-108 -220 -322 -220q-155 0 -243.5 102t-88.5 290z" />
<glyph unicode="v" horiz-adv-x="922" d="M24 1010h174l281 -821l278 821h140l-349 -1010h-163z" />
<glyph unicode="w" horiz-adv-x="1360" d="M38 1010h158l219 -753l210 753h115l227 -756l227 756h127l-291 -1010h-127l-226 750l-207 -750h-129z" />
<glyph unicode="x" horiz-adv-x="868" d="M7 0l340 524l-307 486h181l216 -345l220 345h151l-294 -452l347 -558h-181l-257 410l-263 -410h-153z" />
<glyph unicode="y" horiz-adv-x="850" d="M11 1010h160l270 -759l277 759h132l-405 -1128q-88 -244 -281 -244q-61 0 -135 21v123q61 -14 105 -14q75 0 125.5 43t100.5 208z" />
<glyph unicode="z" horiz-adv-x="867" d="M68 0v121l537 766h-496v123h703v-85l-556 -804h556v-121h-744z" />
<glyph unicode="{" horiz-adv-x="601" d="M118 465v99q57 14 87 52.5t30 125.5v355q0 147 69.5 208t212.5 61q14 0 43 -1v-106q-113 -3 -150.5 -40.5t-37.5 -136.5v-346q0 -67 -20.5 -127.5t-105.5 -97.5q126 -55 126 -231v-330q0 -107 37.5 -145.5t150.5 -39.5v-106l-35 -1q-160 0 -225 66.5t-65 225.5v330 q0 93 -29.5 131.5t-87.5 53.5z" />
<glyph unicode="|" horiz-adv-x="1024" d="M436 -341v1706h153v-1706h-153z" />
<glyph unicode="}" horiz-adv-x="601" d="M41 -235q112 3 150 40.5t38 136.5v346q0 71 21 130t105 95q-126 55 -126 231v330q0 107 -37.5 145.5t-150.5 39.5v106l34 1q168 0 229 -68.5t61 -223.5v-330q0 -88 27 -128t91 -57v-99q-56 -14 -87 -52.5t-31 -125.5v-355q0 -130 -60.5 -199.5t-220.5 -69.5q-14 0 -43 1 v106z" />
<glyph unicode="~" d="M108 585q107 238 281 238q84 0 229 -70q134 -64 199 -64q106 0 184 137l92 -54q-114 -231 -280 -231q-84 0 -256 81q-112 52 -184 52q-96 0 -175 -147z" />
<glyph unicode="&#xa1;" horiz-adv-x="550" d="M157 -341l79 1025h83l74 -1025h-236zM171 799v211h208v-211h-208z" />
<glyph unicode="&#xa2;" d="M197 703q0 170 87 306.5t271 162.5v251h112v-251q100 -7 196.5 -83t126.5 -227l-136 -26q-19 91 -72 152.5t-115 66.5v-706q150 35 187 215l136 -22q-62 -278 -323 -316v-283h-112v283q-138 20 -218.5 101t-110 179.5t-29.5 196.5zM355 692q0 -286 200 -343v702 q-200 -44 -200 -359z" />
<glyph unicode="&#xa3;" d="M-5 0v150q155 3 219.5 22.5t121 92.5t56.5 178q0 73 -19 206h-218v117h207q-19 107 -19 190q0 199 107 318t265 119q198 0 328 -187l-111 -86q-103 136 -209 136q-82 0 -142 -65.5t-60 -174.5q0 -78 21 -250h293v-117h-279q6 -85 6 -141q0 -239 -159 -358h318 q149 0 216.5 39t111.5 117l130 -85q-49 -106 -148.5 -163.5t-205.5 -57.5h-830z" />
<glyph unicode="&#xa4;" horiz-adv-x="1365" d="M100 1227l92 91l198 -195q149 103 297 103q141 0 288 -103l196 195l91 -91l-194 -196q102 -151 102 -291q0 -143 -102 -288l198 -196l-91 -92l-197 197q-141 -103 -295 -103q-138 0 -293 101l-195 -195l-91 92l194 196q-102 139 -102 289q0 146 102 290zM338 742 q0 -144 101.5 -245.5t243.5 -101.5t244 101.5t102 244.5t-101.5 245t-244.5 102t-244 -102.5t-101 -243.5z" />
<glyph unicode="&#xa5;" horiz-adv-x="1202" d="M59 1365h201l362 -627l365 627h157l-301 -518h253v-118h-321l-91 -157h412v-117h-412v-455h-166v455h-412v117h412l-90 157h-322v118h254z" />
<glyph unicode="&#xa6;" horiz-adv-x="1024" d="M436 314h153v-655h-153v655zM436 683v682h153v-682h-153z" />
<glyph unicode="&#xa7;" d="M134 -72l176 26q91 -192 305 -192q116 0 202 60t86 157q0 138 -209 194l-207 55q-175 47 -243 118t-68 177q0 173 193 295q-164 90 -164 266q0 138 105 223.5t280 85.5q158 0 268.5 -71.5t146.5 -193.5l-153 -18q-67 168 -267 168q-106 0 -166.5 -50.5t-60.5 -124.5 q0 -81 65 -131t179 -83l186 -52q122 -34 185.5 -109.5t63.5 -167.5q0 -146 -163 -277q193 -92 193 -280q0 -154 -129 -262t-332 -108q-353 0 -472 295zM334 570q0 -131 217 -192l197 -56q74 36 108 92t34 100q0 52 -45.5 105.5t-132.5 79.5l-222 70q-156 -80 -156 -199z" />
<glyph unicode="&#xa8;" horiz-adv-x="1024" d="M247 1302q0 43 30.5 72.5t69.5 29.5q48 0 78 -30t30 -71q0 -42 -31.5 -72t-73.5 -30t-72.5 30t-30.5 71zM565 1303q0 43 31.5 72.5t73.5 29.5q44 0 75.5 -29.5t31.5 -71.5q0 -43 -31.5 -73t-74.5 -30t-74.5 30t-31.5 72z" />
<glyph unicode="&#xa9;" horiz-adv-x="1584" d="M86 687q0 290 207.5 498t498.5 208t498.5 -208t207.5 -498q0 -291 -207.5 -498.5t-498.5 -207.5t-498.5 207.5t-207.5 498.5zM187 687q0 -250 177 -427.5t428 -177.5q249 0 427 178t178 427q0 250 -177.5 427.5t-427.5 177.5q-249 0 -427 -178t-178 -427zM423 695 q0 190 99.5 303.5t264.5 113.5q255 0 319 -270l-121 -22q-52 194 -202 194q-103 0 -163 -87.5t-60 -246.5q0 -144 60.5 -232t161.5 -88q162 0 207 204l117 -25q-71 -278 -327 -278q-172 0 -264 128t-92 306z" />
<glyph unicode="&#xaa;" horiz-adv-x="715" d="M52 938q0 93 85 153.5t285 60.5q21 0 71 -2q0 84 -29 120.5t-120 36.5q-143 0 -164 -109l-112 18q29 177 289 177q137 0 194 -57t57 -193v-254q0 -67 16 -122h-120q-8 38 -11 82q-66 -98 -211 -98q-112 0 -171 55.5t-59 131.5zM178 936q0 -100 125 -100q83 0 137.5 59 t54.5 138q0 13 -2 32q-54 3 -81 3q-234 0 -234 -132z" />
<glyph unicode="&#xab;" horiz-adv-x="704" d="M82 533l172 282h90l-106 -282l106 -293h-90zM344 533l173 282h92l-107 -282l107 -293h-92z" />
<glyph unicode="&#xac;" d="M157 408v138h887v-546h-152v408h-735z" />
<glyph unicode="&#xad;" horiz-adv-x="512" d="M30 451v122h452v-122h-452z" />
<glyph unicode="&#xae;" horiz-adv-x="1584" d="M86 687q0 290 207.5 498t498.5 208t498.5 -208t207.5 -498q0 -291 -207.5 -498.5t-498.5 -207.5t-498.5 207.5t-207.5 498.5zM187 687q0 -250 177 -427.5t428 -177.5q249 0 427 178t178 427q0 250 -177.5 427.5t-427.5 177.5q-249 0 -427 -178t-178 -427zM487 277v819 h346q140 0 209.5 -72t69.5 -160q0 -65 -38 -125t-119 -85l169 -377h-134l-157 349h-225v-349h-121zM608 722h212q83 0 123.5 41.5t40.5 102.5q0 63 -43 95.5t-108 32.5h-225v-272z" />
<glyph unicode="&#xaf;" horiz-adv-x="1024" d="M0 1631v137h1024v-137h-1024z" />
<glyph unicode="&#xb0;" d="M330 1122q0 111 79.5 191t191.5 80t191.5 -79.5t79.5 -191.5q0 -111 -80 -190.5t-195 -79.5q-108 0 -187.5 79.5t-79.5 190.5zM446 1123q0 -65 45.5 -110t104.5 -45q68 0 114 45.5t46 109.5t-45.5 109.5t-110.5 45.5q-63 0 -108.5 -45.5t-45.5 -109.5z" />
<glyph unicode="&#xb1;" d="M123 -40v138h956v-138h-956zM123 615v138h403v421h150v-421h403v-138h-403v-421h-150v421h-403z" />
<glyph unicode="&#xb2;" horiz-adv-x="792" d="M81 546v94q359 255 426.5 334t67.5 156q0 71 -55.5 114.5t-127.5 43.5q-76 0 -134 -49t-65 -138l-112 33q64 248 312 248q135 0 218.5 -73.5t83.5 -172.5q0 -131 -124 -244.5t-326 -248.5h453v-97h-617z" />
<glyph unicode="&#xb3;" horiz-adv-x="792" d="M52 739l112 35q43 -147 217 -147q109 0 158 44t49 106q0 67 -58.5 108t-162.5 41h-104v93h104q190 0 190 134q0 62 -49 98t-123 36q-147 0 -193 -131l-109 29q84 197 312 197q124 0 203.5 -64t79.5 -158q0 -134 -138 -182q74 -16 122.5 -70t48.5 -132q0 -103 -88 -174 t-241 -71q-248 0 -330 208z" />
<glyph unicode="&#xb4;" horiz-adv-x="1024" d="M379 1248l396 228l61 -120l-414 -189z" />
<glyph unicode="&#xb5;" horiz-adv-x="1095" d="M150 -341v1351h157v-566q0 -111 21 -174t77.5 -110.5t136.5 -47.5q246 0 246 344v554h157v-1010h-143v158q-89 -185 -255 -185q-159 0 -240 158v-472h-157z" />
<glyph unicode="&#xb6;" d="M74 1024q0 109 45.5 190t120 116t265.5 35h581v-95h-137v-1611h-100v1611h-98v-1611h-99v1066h-151q-181 0 -259.5 30t-123 100t-44.5 169zM239 1043q0 -100 54 -161t217 -61h142v449h-112q-114 0 -172.5 -16t-93.5 -67.5t-35 -143.5z" />
<glyph unicode="&#xb7;" horiz-adv-x="223" d="M0 407v224h223v-224h-223z" />
<glyph unicode="&#xb8;" horiz-adv-x="1024" d="M307 -327l24 64q73 -35 142 -35q48 0 75 21t27 51q0 69 -121 69q-29 0 -69 -5l53 162h66l-26 -93q102 0 150 -38t48 -95q0 -56 -44.5 -101t-148.5 -45q-102 0 -176 45z" />
<glyph unicode="&#xb9;" horiz-adv-x="792" d="M154 1064v117q167 83 262 201h86v-747h209v-89h-550v89h225v599q-110 -108 -232 -170z" />
<glyph unicode="&#xba;" horiz-adv-x="704" d="M58 1074q0 145 85 232t211 87q128 0 209.5 -87t81.5 -233q0 -142 -84 -232t-218 -90q-125 0 -205 87.5t-80 235.5zM187 1074q0 -118 45 -175.5t119 -57.5q71 0 118 57t47 176t-49 174t-117 55q-69 0 -116 -55.5t-47 -173.5z" />
<glyph unicode="&#xbb;" horiz-adv-x="704" d="M96 240l107 283l-107 292h91l174 -292l-174 -283h-91zM361 240l105 283l-105 292h89l172 -292l-172 -283h-89z" />
<glyph unicode="&#xbc;" horiz-adv-x="1802" d="M102 1064v117q167 83 262 201h86v-747h209v-89h-550v89h225v599q-110 -108 -232 -170zM411 0l827 1365h124l-825 -1365h-126zM1050 191v77l391 568h142v-551h138v-94h-138v-191h-115v191h-418zM1180 285h288v436q-16 -29 -32 -52z" />
<glyph unicode="&#xbd;" horiz-adv-x="1802" d="M88 1064v117q167 83 262 201h86v-747h209v-89h-550v89h225v599q-110 -108 -232 -170zM397 0l827 1365h124l-825 -1365h-126zM1102 0v94q360 257 427 335t67 155q0 71 -55.5 114t-127.5 43q-76 0 -134 -48t-65 -138l-112 32q63 249 312 249q135 0 218.5 -73.5t83.5 -173.5 q0 -96 -81.5 -198.5t-368.5 -293.5h452v-97h-616z" />
<glyph unicode="&#xbe;" horiz-adv-x="1802" d="M41 739l112 35q43 -147 217 -147q109 0 158 44t49 106q0 67 -58.5 108t-162.5 41h-104v93h104q190 0 190 134q0 62 -49 98t-123 36q-147 0 -193 -131l-109 29q84 197 312 197q124 0 203.5 -64t79.5 -158q0 -134 -138 -182q74 -16 122.5 -70t48.5 -132q0 -103 -88 -174 t-241 -71q-248 0 -330 208zM480 0l827 1365h125l-826 -1365h-126zM1078 191v77l391 568h143v-551h138v-94h-138v-191h-116v191h-418zM1208 285h288v436q-16 -29 -32 -52z" />
<glyph unicode="&#xbf;" horiz-adv-x="1035" d="M82 21q0 223 255 356q112 59 137.5 92.5t25.5 103.5l-1 111h143q0 -156 -3.5 -194t-22 -77.5t-40.5 -60.5t-106 -68q-91 -51 -125.5 -79.5t-59.5 -78.5t-25 -111q0 -114 82.5 -179t193.5 -65q254 0 310 296l149 -33q-75 -403 -468 -403q-204 0 -324.5 110.5t-120.5 279.5 zM465 814v196h202v-196h-202z" />
<glyph unicode="&#xc0;" horiz-adv-x="1097" d="M7 0l443 1365h195l445 -1365h-175l-138 399h-505l-122 -399h-143zM319 527h422l-210 656zM221 1677l62 120l395 -228l-42 -81z" />
<glyph unicode="&#xc1;" horiz-adv-x="1097" d="M7 0l443 1365h195l445 -1365h-175l-138 399h-505l-122 -399h-143zM319 527h422l-210 656zM416 1569l396 228l61 -120l-414 -189z" />
<glyph unicode="&#xc2;" horiz-adv-x="1097" d="M7 0l443 1365h195l445 -1365h-175l-138 399h-505l-122 -399h-143zM319 527h422l-210 656zM217 1515l334 260l329 -260l-141 -20l-191 134l-184 -134z" />
<glyph unicode="&#xc3;" horiz-adv-x="1097" d="M7 0l443 1365h195l445 -1365h-175l-138 399h-505l-122 -399h-143zM319 527h422l-210 656zM207 1593q88 128 224 128q46 0 128 -34q89 -37 128 -37q65 0 127 51l77 -72q-106 -101 -202 -101q-49 0 -129 35q-87 38 -134 38q-81 0 -135 -66z" />
<glyph unicode="&#xc4;" horiz-adv-x="1097" d="M7 0l443 1365h195l445 -1365h-175l-138 399h-505l-122 -399h-143zM319 527h422l-210 656zM284 1623q0 43 30.5 72.5t69.5 29.5q48 0 78 -30t30 -71q0 -42 -31.5 -72t-73.5 -30t-72.5 30t-30.5 71zM602 1624q0 43 31.5 72.5t73.5 29.5q44 0 75.5 -29.5t31.5 -71.5 q0 -43 -31.5 -73t-74.5 -30t-74.5 30t-31.5 72z" />
<glyph unicode="&#xc5;" horiz-adv-x="1097" d="M7 0l443 1365h195l445 -1365h-175l-138 399h-505l-122 -399h-143zM319 527h422l-210 656zM369 1636q0 73 53 126.5t132 53.5q70 0 122.5 -53.5t52.5 -127.5t-52.5 -127t-125.5 -53q-75 0 -128.5 53t-53.5 128zM458 1635q0 -38 27.5 -65t64.5 -27t63.5 26.5t26.5 64.5 q0 37 -26 64t-63 27q-38 0 -65.5 -26.5t-27.5 -63.5z" />
<glyph unicode="&#xc6;" horiz-adv-x="1856" d="M-27 0l813 1365h976v-150h-742v-434h600v-139h-600v-492h768v-150h-939v422h-459l-252 -422h-165zM464 554h385v662z" />
<glyph unicode="&#xc7;" horiz-adv-x="1186" d="M85 696q0 315 154 506t413 191q384 0 493 -439l-161 -32q-88 326 -333 326q-181 0 -280.5 -151.5t-99.5 -425.5q0 -251 102 -402.5t270 -151.5q261 0 346 342l156 -35q-111 -451 -497 -451l-25 -80q24 2 37 2q68 0 124.5 -39.5t56.5 -111.5q0 -68 -57 -111.5t-160 -43.5 q-105 0 -193 50l26 72q83 -40 154 -40q115 0 115 75q0 80 -129 80q-28 0 -81 -5l52 156q-224 26 -353.5 232t-129.5 487z" />
<glyph unicode="&#xc8;" horiz-adv-x="1122" d="M171 0v1365h864v-150h-693v-434h550v-139h-550v-492h712v-150h-883zM323 1677l62 120l395 -228l-42 -81z" />
<glyph unicode="&#xc9;" horiz-adv-x="1122" d="M171 0v1365h864v-150h-693v-434h550v-139h-550v-492h712v-150h-883zM452 1569l396 228l61 -120l-414 -189z" />
<glyph unicode="&#xca;" horiz-adv-x="1122" d="M171 0v1365h864v-150h-693v-434h550v-139h-550v-492h712v-150h-883zM274 1515l334 260l329 -260l-141 -20l-191 134l-184 -134z" />
<glyph unicode="&#xcb;" horiz-adv-x="1122" d="M171 0v1365h864v-150h-693v-434h550v-139h-550v-492h712v-150h-883zM341 1623q0 43 30.5 72.5t69.5 29.5q48 0 78 -30t30 -71q0 -42 -31.5 -72t-73.5 -30t-72.5 30t-30.5 71zM659 1624q0 43 31.5 72.5t73.5 29.5q44 0 75.5 -29.5t31.5 -71.5q0 -43 -31.5 -73t-74.5 -30 t-74.5 30t-31.5 72z" />
<glyph unicode="&#xcc;" horiz-adv-x="512" d="M191 0v1365h171v-1365h-171zM-27 1677l62 120l395 -228l-42 -81z" />
<glyph unicode="&#xcd;" horiz-adv-x="512" d="M191 0v1365h171v-1365h-171zM123 1569l396 228l61 -120l-414 -189z" />
<glyph unicode="&#xce;" horiz-adv-x="512" d="M171 0v1365h171v-1365h-171zM-75 1515l334 260l329 -260l-141 -20l-191 134l-184 -134z" />
<glyph unicode="&#xcf;" horiz-adv-x="512" d="M171 0v1365h171v-1365h-171zM13 1623q0 43 30.5 72.5t69.5 29.5q48 0 78 -30t30 -71q0 -42 -31.5 -72t-73.5 -30t-72.5 30t-30.5 71zM331 1624q0 43 31.5 72.5t73.5 29.5q44 0 75.5 -29.5t31.5 -71.5q0 -43 -31.5 -73t-74.5 -30t-74.5 30t-31.5 72z" />
<glyph unicode="&#xd0;" horiz-adv-x="1325" d="M35 655v137h137v573h456q289 0 450 -197t161 -481q0 -289 -156.5 -488t-398.5 -199h-512v655h-137zM342 145h276q220 0 334 152.5t114 400.5q0 200 -109 362t-339 162h-276v-430h326v-137h-326v-510z" />
<glyph unicode="&#xd1;" horiz-adv-x="1346" d="M171 0v1365h214l660 -1113l-2 95q-2 56 -2 99v919h135v-1365h-166l-706 1190l2 -90q3 -51 3 -86v-1014h-138zM338 1593q88 128 224 128q46 0 128 -34q89 -37 128 -37q65 0 127 51l77 -72q-106 -101 -202 -101q-49 0 -129 35q-87 38 -134 38q-81 0 -135 -66z" />
<glyph unicode="&#xd2;" horiz-adv-x="1292" d="M85 679q0 310 154 512t408 202q253 0 406 -198.5t153 -500.5q0 -290 -148.5 -505.5t-415.5 -215.5q-263 0 -410 204.5t-147 501.5zM264 678q0 -251 104 -408.5t278 -157.5q179 0 280 163t101 420q0 264 -104.5 411t-277.5 147q-175 0 -278 -159t-103 -416zM348 1677 l62 120l395 -228l-42 -81z" />
<glyph unicode="&#xd3;" horiz-adv-x="1292" d="M85 679q0 310 154 512t408 202q253 0 406 -198.5t153 -500.5q0 -290 -148.5 -505.5t-415.5 -215.5q-263 0 -410 204.5t-147 501.5zM264 678q0 -251 104 -408.5t278 -157.5q179 0 280 163t101 420q0 264 -104.5 411t-277.5 147q-175 0 -278 -159t-103 -416zM499 1569 l396 228l61 -120l-414 -189z" />
<glyph unicode="&#xd4;" horiz-adv-x="1292" d="M85 679q0 310 154 512t408 202q253 0 406 -198.5t153 -500.5q0 -290 -148.5 -505.5t-415.5 -215.5q-263 0 -410 204.5t-147 501.5zM264 678q0 -251 104 -408.5t278 -157.5q179 0 280 163t101 420q0 264 -104.5 411t-277.5 147q-175 0 -278 -159t-103 -416zM314 1515 l334 260l329 -260l-141 -20l-191 134l-184 -134z" />
<glyph unicode="&#xd5;" horiz-adv-x="1292" d="M85 679q0 310 154 512t408 202q253 0 406 -198.5t153 -500.5q0 -290 -148.5 -505.5t-415.5 -215.5q-263 0 -410 204.5t-147 501.5zM264 678q0 -251 104 -408.5t278 -157.5q179 0 280 163t101 420q0 264 -104.5 411t-277.5 147q-175 0 -278 -159t-103 -416zM317 1593 q88 128 224 128q46 0 128 -34q89 -37 128 -37q65 0 127 51l77 -72q-106 -101 -202 -101q-49 0 -129 35q-87 38 -134 38q-81 0 -135 -66z" />
<glyph unicode="&#xd6;" horiz-adv-x="1292" d="M85 679q0 310 154 512t408 202q253 0 406 -198.5t153 -500.5q0 -290 -148.5 -505.5t-415.5 -215.5q-263 0 -410 204.5t-147 501.5zM264 678q0 -251 104 -408.5t278 -157.5q179 0 280 163t101 420q0 264 -104.5 411t-277.5 147q-175 0 -278 -159t-103 -416zM381 1623 q0 43 30.5 72.5t69.5 29.5q48 0 78 -30t30 -71q0 -42 -31.5 -72t-73.5 -30t-72.5 30t-30.5 71zM699 1624q0 43 31.5 72.5t73.5 29.5q44 0 75.5 -29.5t31.5 -71.5q0 -43 -31.5 -73t-74.5 -30t-74.5 30t-31.5 72z" />
<glyph unicode="&#xd7;" d="M194 375l309 309l-309 309l98 98l309 -309l308 309l98 -98l-308 -309l308 -309l-98 -98l-308 309l-309 -309z" />
<glyph unicode="&#xd8;" horiz-adv-x="1292" d="M63 -49l157 241q-135 200 -135 493q0 297 151.5 502.5t412.5 205.5q182 0 326 -114l97 140h146l-158 -233q146 -197 146 -494q0 -284 -146.5 -501.5t-421.5 -217.5q-195 0 -336 125l-95 -147h-144zM264 685q0 -213 68 -350l544 827q-91 91 -234 91q-171 0 -274.5 -156 t-103.5 -412zM404 224q92 -112 241 -112q192 0 287 171t95 409q0 223 -73 363z" />
<glyph unicode="&#xd9;" horiz-adv-x="1241" d="M150 474v891h171v-891q0 -159 37 -224t112 -96t157 -31q158 0 240 83t82 268v891h142v-891q0 -268 -131.5 -384.5t-344.5 -116.5q-237 0 -351 120t-114 381zM317 1677l62 120l395 -228l-42 -81z" />
<glyph unicode="&#xda;" horiz-adv-x="1241" d="M150 474v891h171v-891q0 -159 37 -224t112 -96t157 -31q158 0 240 83t82 268v891h142v-891q0 -268 -131.5 -384.5t-344.5 -116.5q-237 0 -351 120t-114 381zM494 1569l396 228l61 -120l-414 -189z" />
<glyph unicode="&#xdb;" horiz-adv-x="1241" d="M150 474v891h171v-891q0 -159 37 -224t112 -96t157 -31q158 0 240 83t82 268v891h142v-891q0 -268 -131.5 -384.5t-344.5 -116.5q-237 0 -351 120t-114 381zM296 1515l334 260l329 -260l-141 -20l-191 134l-184 -134z" />
<glyph unicode="&#xdc;" horiz-adv-x="1241" d="M150 474v891h171v-891q0 -159 37 -224t112 -96t157 -31q158 0 240 83t82 268v891h142v-891q0 -268 -131.5 -384.5t-344.5 -116.5q-237 0 -351 120t-114 381zM362 1623q0 43 30.5 72.5t69.5 29.5q48 0 78 -30t30 -71q0 -42 -31.5 -72t-73.5 -30t-72.5 30t-30.5 71z M680 1624q0 43 31.5 72.5t73.5 29.5q44 0 75.5 -29.5t31.5 -71.5q0 -43 -31.5 -73t-74.5 -30t-74.5 30t-31.5 72z" />
<glyph unicode="&#xdd;" horiz-adv-x="1045" d="M-20 1365h201l363 -628l365 628h156l-457 -791v-574h-171v574zM396 1569l396 228l61 -120l-414 -189z" />
<glyph unicode="&#xde;" horiz-adv-x="1159" d="M171 0v1365h171v-198h313q227 0 335 -123.5t108 -285.5q0 -171 -117 -286.5t-308 -115.5h-331v-356h-171zM342 498h314q121 0 195 72.5t74 190.5q0 110 -69.5 186.5t-187.5 76.5h-326v-526z" />
<glyph unicode="&#xdf;" horiz-adv-x="1162" d="M51 791v126h107q13 273 136 394t305 121q150 0 263 -82t113 -218q0 -130 -115 -205.5t-273 -75.5l-24 1q-30 0 -30 -17q0 -16 25 -31.5t119 -50.5q271 -99 351 -192t80 -217q0 -160 -119 -273t-309 -113q-97 0 -226 33l44 114q102 -21 166 -21q130 0 201 78t71 150 q0 142 -147 208l-249 110q-157 69 -157 167q0 30 16.5 72t31 52.5t61.5 15.5q312 34 312 207q0 70 -58 114.5t-149 44.5q-136 0 -209.5 -93t-73.5 -239v-1058h-156v878h-107z" />
<glyph unicode="&#xe0;" horiz-adv-x="1083" d="M68 279q0 153 130 251.5t442 98.5q42 0 134 -4q0 120 -18.5 173.5t-78.5 85.5t-158 32q-239 0 -278 -182l-145 25q53 279 446 279q209 0 296.5 -92.5t87.5 -320.5v-429q0 -107 22 -196h-156q-9 48 -18 182q-104 -209 -354 -209q-170 0 -261 90t-91 216zM236 272 q0 -74 55.5 -126t160.5 -52q142 0 233.5 103t91.5 242q0 28 -3 66q-96 6 -146 6q-186 0 -289 -61t-103 -178zM252 1356l62 120l395 -228l-42 -81z" />
<glyph unicode="&#xe1;" horiz-adv-x="1083" d="M68 279q0 153 130 251.5t442 98.5q42 0 134 -4q0 120 -18.5 173.5t-78.5 85.5t-158 32q-239 0 -278 -182l-145 25q53 279 446 279q209 0 296.5 -92.5t87.5 -320.5v-429q0 -107 22 -196h-156q-9 48 -18 182q-104 -209 -354 -209q-170 0 -261 90t-91 216zM236 272 q0 -74 55.5 -126t160.5 -52q142 0 233.5 103t91.5 242q0 28 -3 66q-96 6 -146 6q-186 0 -289 -61t-103 -178zM375 1248l396 228l61 -120l-414 -189z" />
<glyph unicode="&#xe2;" horiz-adv-x="1083" d="M68 279q0 153 130 251.5t442 98.5q42 0 134 -4q0 120 -18.5 173.5t-78.5 85.5t-158 32q-239 0 -278 -182l-145 25q53 279 446 279q209 0 296.5 -92.5t87.5 -320.5v-429q0 -107 22 -196h-156q-9 48 -18 182q-104 -209 -354 -209q-170 0 -261 90t-91 216zM236 272 q0 -74 55.5 -126t160.5 -52q142 0 233.5 103t91.5 242q0 28 -3 66q-96 6 -146 6q-186 0 -289 -61t-103 -178zM204 1194l334 260l329 -260l-141 -20l-191 134l-184 -134z" />
<glyph unicode="&#xe3;" horiz-adv-x="1083" d="M68 279q0 153 130 251.5t442 98.5q42 0 134 -4q0 120 -18.5 173.5t-78.5 85.5t-158 32q-239 0 -278 -182l-145 25q53 279 446 279q209 0 296.5 -92.5t87.5 -320.5v-429q0 -107 22 -196h-156q-9 48 -18 182q-104 -209 -354 -209q-170 0 -261 90t-91 216zM236 272 q0 -74 55.5 -126t160.5 -52q142 0 233.5 103t91.5 242q0 28 -3 66q-96 6 -146 6q-186 0 -289 -61t-103 -178zM200 1272q88 128 224 128q46 0 128 -34q89 -37 128 -37q65 0 127 51l77 -72q-106 -101 -202 -101q-49 0 -129 35q-87 38 -134 38q-81 0 -135 -66z" />
<glyph unicode="&#xe4;" horiz-adv-x="1083" d="M68 279q0 153 130 251.5t442 98.5q42 0 134 -4q0 120 -18.5 173.5t-78.5 85.5t-158 32q-239 0 -278 -182l-145 25q53 279 446 279q209 0 296.5 -92.5t87.5 -320.5v-429q0 -107 22 -196h-156q-9 48 -18 182q-104 -209 -354 -209q-170 0 -261 90t-91 216zM236 272 q0 -74 55.5 -126t160.5 -52q142 0 233.5 103t91.5 242q0 28 -3 66q-96 6 -146 6q-186 0 -289 -61t-103 -178zM271 1302q0 43 30.5 72.5t69.5 29.5q48 0 78 -30t30 -71q0 -42 -31.5 -72t-73.5 -30t-72.5 30t-30.5 71zM589 1303q0 43 31.5 72.5t73.5 29.5q44 0 75.5 -29.5 t31.5 -71.5q0 -43 -31.5 -73t-74.5 -30t-74.5 30t-31.5 72z" />
<glyph unicode="&#xe5;" horiz-adv-x="1083" d="M68 279q0 153 130 251.5t442 98.5q42 0 134 -4q0 120 -18.5 173.5t-78.5 85.5t-158 32q-239 0 -278 -182l-145 25q53 279 446 279q209 0 296.5 -92.5t87.5 -320.5v-429q0 -107 22 -196h-156q-9 48 -18 182q-104 -209 -354 -209q-170 0 -261 90t-91 216zM236 272 q0 -74 55.5 -126t160.5 -52q142 0 233.5 103t91.5 242q0 28 -3 66q-96 6 -146 6q-186 0 -289 -61t-103 -178zM362 1327q0 70 51.5 122t127.5 52q67 0 117.5 -51.5t50.5 -123.5q0 -71 -50.5 -121.5t-121.5 -50.5t-123 51t-52 122zM445 1328q0 -38 27 -65t65 -27q37 0 63 26.5 t26 63.5q0 38 -26 65t-59 27q-43 0 -69.5 -27t-26.5 -63z" />
<glyph unicode="&#xe6;" horiz-adv-x="1722" d="M64 273q0 159 132.5 256t425.5 97q63 0 139 -7q2 44 2 70q0 226 -256 226q-114 0 -178.5 -51.5t-77.5 -120.5l-149 26q31 136 150 202.5t274 66.5q244 0 351 -147q127 147 329 147q182 0 306 -131t131 -416h-731q0 -217 91.5 -303t209.5 -86q189 0 271 195l142 -27 q-40 -132 -155.5 -214.5t-267.5 -82.5q-277 0 -409 256q-106 -256 -365 -256q-183 0 -274 85.5t-91 214.5zM235 283q0 -76 54 -128.5t142 -52.5q127 0 226.5 92.5t99.5 253.5q0 18 -1 55q-56 9 -128 9q-196 0 -294.5 -64t-98.5 -165zM918 608h554q-4 134 -74.5 220.5 t-193.5 86.5q-121 0 -200 -87t-86 -220z" />
<glyph unicode="&#xe7;" horiz-adv-x="954" d="M78 503q0 230 115.5 382.5t314.5 152.5q165 0 264.5 -98.5t123.5 -254.5l-142 -27q-40 250 -242 250q-130 0 -200 -110.5t-70 -286.5q0 -194 69.5 -301.5t195.5 -107.5q195 0 247 252l142 -25q-29 -164 -131 -260t-259 -96l-19 -66q103 0 150.5 -38t47.5 -95t-45 -101.5 t-145 -44.5q-104 0 -179 45l24 64q73 -35 144 -35q44 0 72 19.5t28 50.5q0 71 -116 71q-25 0 -74 -5l46 139q-177 25 -269.5 175.5t-92.5 350.5z" />
<glyph unicode="&#xe8;" horiz-adv-x="1066" d="M78 500q0 241 133 389.5t334 148.5q198 0 318.5 -137t123.5 -410h-734q0 -229 96 -309t203 -80q193 0 272 199l146 -30q-40 -129 -156 -213.5t-273 -84.5q-207 0 -335 145.5t-128 381.5zM260 608h555q-2 85 -28 151t-88 112.5t-149 46.5q-117 0 -198.5 -84t-91.5 -226z M270 1356l62 120l395 -228l-42 -81z" />
<glyph unicode="&#xe9;" horiz-adv-x="1066" d="M78 500q0 241 133 389.5t334 148.5q198 0 318.5 -137t123.5 -410h-734q0 -229 96 -309t203 -80q193 0 272 199l146 -30q-40 -129 -156 -213.5t-273 -84.5q-207 0 -335 145.5t-128 381.5zM260 608h555q-2 85 -28 151t-88 112.5t-149 46.5q-117 0 -198.5 -84t-91.5 -226z M393 1248l396 228l61 -120l-414 -189z" />
<glyph unicode="&#xea;" horiz-adv-x="1066" d="M78 500q0 241 133 389.5t334 148.5q198 0 318.5 -137t123.5 -410h-734q0 -229 96 -309t203 -80q193 0 272 199l146 -30q-40 -129 -156 -213.5t-273 -84.5q-207 0 -335 145.5t-128 381.5zM260 608h555q-2 85 -28 151t-88 112.5t-149 46.5q-117 0 -198.5 -84t-91.5 -226z M215 1194l334 260l329 -260l-141 -20l-191 134l-184 -134z" />
<glyph unicode="&#xeb;" horiz-adv-x="1066" d="M78 500q0 241 133 389.5t334 148.5q198 0 318.5 -137t123.5 -410h-734q0 -229 96 -309t203 -80q193 0 272 199l146 -30q-40 -129 -156 -213.5t-273 -84.5q-207 0 -335 145.5t-128 381.5zM260 608h555q-2 85 -28 151t-88 112.5t-149 46.5q-117 0 -198.5 -84t-91.5 -226z M291 1302q0 43 30.5 72.5t69.5 29.5q48 0 78 -30t30 -71q0 -42 -31.5 -72t-73.5 -30t-72.5 30t-30.5 71zM609 1303q0 43 31.5 72.5t73.5 29.5q44 0 75.5 -29.5t31.5 -71.5q0 -43 -31.5 -73t-74.5 -30t-74.5 30t-31.5 72z" />
<glyph unicode="&#xec;" horiz-adv-x="470" d="M156 0v1010h157v-1010h-157zM-112 1356l62 120l395 -228l-42 -81z" />
<glyph unicode="&#xed;" horiz-adv-x="470" d="M156 0v1010h157v-1010h-157zM129 1248l396 228l61 -120l-414 -189z" />
<glyph unicode="&#xee;" horiz-adv-x="470" d="M156 0v1010h157v-1010h-157zM-97 1194l334 260l329 -260l-141 -20l-191 134l-184 -134z" />
<glyph unicode="&#xef;" horiz-adv-x="470" d="M157 0v1010h157v-1010h-157zM-8 1302q0 43 30.5 72.5t69.5 29.5q48 0 78 -30t30 -71q0 -42 -31.5 -72t-73.5 -30t-72.5 30t-30.5 71zM310 1303q0 43 31.5 72.5t73.5 29.5q44 0 75.5 -29.5t31.5 -71.5q0 -43 -31.5 -73t-74.5 -30t-74.5 30t-31.5 72z" />
<glyph unicode="&#xf0;" horiz-adv-x="1061" d="M78 493q0 213 123.5 365t301.5 152q144 0 245 -114q-48 159 -169 281l-175 -101l-59 88l146 88q-57 44 -164 94l77 82q110 -35 207 -106l176 99l70 -87l-153 -86q278 -282 278 -707q0 -281 -130.5 -424.5t-325.5 -143.5q-221 0 -334.5 157.5t-113.5 362.5zM250 500 q0 -199 79 -299.5t204 -100.5q121 0 199 101.5t78 286.5q0 175 -78 284t-204 109q-132 0 -205 -109t-73 -272z" />
<glyph unicode="&#xf1;" horiz-adv-x="1110" d="M157 0v1010h146v-186q123 214 319 214q113 0 192.5 -58.5t109 -131.5t29.5 -264v-584h-147v649q0 140 -61 197t-148 57q-120 0 -201.5 -96t-81.5 -253v-554h-157zM220 1272q88 128 224 128q46 0 128 -34q89 -37 128 -37q65 0 127 51l77 -72q-106 -101 -202 -101 q-49 0 -129 35q-87 38 -134 38q-81 0 -135 -66z" />
<glyph unicode="&#xf2;" horiz-adv-x="1064" d="M78 509q0 241 131 385t326 144q209 0 329.5 -151.5t120.5 -378.5q0 -236 -130 -385.5t-336 -149.5q-208 0 -324.5 154t-116.5 382zM250 510q0 -219 81 -313.5t200 -94.5q120 0 201 99t81 308q0 210 -85 304.5t-199 94.5q-117 0 -198 -95.5t-81 -302.5zM248 1356l62 120 l395 -228l-42 -81z" />
<glyph unicode="&#xf3;" horiz-adv-x="1064" d="M78 509q0 241 131 385t326 144q209 0 329.5 -151.5t120.5 -378.5q0 -236 -130 -385.5t-336 -149.5q-208 0 -324.5 154t-116.5 382zM250 510q0 -219 81 -313.5t200 -94.5q120 0 201 99t81 308q0 210 -85 304.5t-199 94.5q-117 0 -198 -95.5t-81 -302.5zM371 1248l396 228 l61 -120l-414 -189z" />
<glyph unicode="&#xf4;" horiz-adv-x="1064" d="M78 509q0 241 131 385t326 144q209 0 329.5 -151.5t120.5 -378.5q0 -236 -130 -385.5t-336 -149.5q-208 0 -324.5 154t-116.5 382zM250 510q0 -219 81 -313.5t200 -94.5q120 0 201 99t81 308q0 210 -85 304.5t-199 94.5q-117 0 -198 -95.5t-81 -302.5zM200 1194l334 260 l329 -260l-141 -20l-191 134l-184 -134z" />
<glyph unicode="&#xf5;" horiz-adv-x="1064" d="M78 509q0 241 131 385t326 144q209 0 329.5 -151.5t120.5 -378.5q0 -236 -130 -385.5t-336 -149.5q-208 0 -324.5 154t-116.5 382zM250 510q0 -219 81 -313.5t200 -94.5q120 0 201 99t81 308q0 210 -85 304.5t-199 94.5q-117 0 -198 -95.5t-81 -302.5zM203 1272 q88 128 224 128q46 0 128 -34q89 -37 128 -37q65 0 127 51l77 -72q-106 -101 -202 -101q-49 0 -129 35q-87 38 -134 38q-81 0 -135 -66z" />
<glyph unicode="&#xf6;" horiz-adv-x="1064" d="M78 509q0 241 131 385t326 144q209 0 329.5 -151.5t120.5 -378.5q0 -236 -130 -385.5t-336 -149.5q-208 0 -324.5 154t-116.5 382zM250 510q0 -219 81 -313.5t200 -94.5q120 0 201 99t81 308q0 210 -85 304.5t-199 94.5q-117 0 -198 -95.5t-81 -302.5zM266 1302 q0 43 30.5 72.5t69.5 29.5q48 0 78 -30t30 -71q0 -42 -31.5 -72t-73.5 -30t-72.5 30t-30.5 71zM584 1303q0 43 31.5 72.5t73.5 29.5q44 0 75.5 -29.5t31.5 -71.5q0 -43 -31.5 -73t-74.5 -30t-74.5 30t-31.5 72z" />
<glyph unicode="&#xf7;" d="M123 615v138h956v-138h-956zM504 388q0 40 28 68.5t68 28.5t68 -28.5t28 -68.5t-28.5 -68t-67.5 -28q-40 0 -68 28t-28 68zM504 992q0 40 28.5 68t67.5 28q40 0 68 -28t28 -68t-28.5 -68t-67.5 -28t-67.5 28t-28.5 68z" />
<glyph unicode="&#xf8;" horiz-adv-x="1064" d="M36 -55l148 197q-106 148 -106 368q0 239 131 383.5t325 144.5q149 0 259 -82l90 120h140l-150 -200q112 -149 112 -368q0 -236 -129.5 -385.5t-336.5 -149.5q-158 0 -260 87l-87 -115h-136zM250 508q0 -135 36 -229l419 559q-78 70 -176 70q-116 0 -197.5 -95 t-81.5 -305zM348 178q79 -76 184 -76q119 0 200 99t81 308q0 146 -40 234z" />
<glyph unicode="&#xf9;" horiz-adv-x="1109" d="M157 365v645h157v-645q0 -150 62.5 -206.5t137.5 -56.5q76 0 137.5 43t102.5 122.5t41 173.5v569h157v-1010h-141v193q-108 -220 -322 -220q-155 0 -243.5 102t-88.5 290zM244 1356l62 120l395 -228l-42 -81z" />
<glyph unicode="&#xfa;" horiz-adv-x="1109" d="M157 365v645h157v-645q0 -150 62.5 -206.5t137.5 -56.5q76 0 137.5 43t102.5 122.5t41 173.5v569h157v-1010h-141v193q-108 -220 -322 -220q-155 0 -243.5 102t-88.5 290zM414 1248l396 228l61 -120l-414 -189z" />
<glyph unicode="&#xfb;" horiz-adv-x="1109" d="M157 365v645h157v-645q0 -150 62.5 -206.5t137.5 -56.5q76 0 137.5 43t102.5 122.5t41 173.5v569h157v-1010h-141v193q-108 -220 -322 -220q-155 0 -243.5 102t-88.5 290zM223 1194l334 260l329 -260l-141 -20l-191 134l-184 -134z" />
<glyph unicode="&#xfc;" horiz-adv-x="1109" d="M157 365v645h157v-645q0 -150 62.5 -206.5t137.5 -56.5q76 0 137.5 43t102.5 122.5t41 173.5v569h157v-1010h-141v193q-108 -220 -322 -220q-155 0 -243.5 102t-88.5 290zM289 1302q0 43 30.5 72.5t69.5 29.5q48 0 78 -30t30 -71q0 -42 -31.5 -72t-73.5 -30t-72.5 30 t-30.5 71zM607 1303q0 43 31.5 72.5t73.5 29.5q44 0 75.5 -29.5t31.5 -71.5q0 -43 -31.5 -73t-74.5 -30t-74.5 30t-31.5 72z" />
<glyph unicode="&#xfd;" horiz-adv-x="850" d="M11 1011h160l270 -759l277 759h132l-405 -1128q-88 -244 -281 -244q-61 0 -135 21v123q61 -14 105 -14q75 0 125.5 43t100.5 208zM311 1248l396 228l61 -120l-414 -189z" />
<glyph unicode="&#xfe;" horiz-adv-x="1094" d="M157 -341v1706h157v-531q105 204 306 204q174 0 285 -148t111 -380q0 -247 -113 -392t-290 -145q-190 0 -299 181v-495h-157zM314 367q15 -115 97 -190t171 -75q103 0 182.5 90t79.5 311q0 191 -72 294.5t-191 103.5q-94 0 -168.5 -73t-98.5 -177v-284z" />
<glyph unicode="&#xff;" horiz-adv-x="850" d="M11 1011h160l270 -759l277 759h132l-405 -1128q-88 -244 -281 -244q-61 0 -135 21v123q61 -14 105 -14q75 0 125.5 43t100.5 208zM173 1302q0 43 30.5 72.5t69.5 29.5q48 0 78 -30t30 -71q0 -42 -31.5 -72t-73.5 -30t-72.5 30t-30.5 71zM491 1303q0 43 31.5 72.5 t73.5 29.5q44 0 75.5 -29.5t31.5 -71.5q0 -43 -31.5 -73t-74.5 -30t-74.5 30t-31.5 72z" />
<glyph unicode="&#x131;" horiz-adv-x="470" d="M156 0v1010h157v-1010h-157z" />
<glyph unicode="&#x152;" horiz-adv-x="1972" d="M85 678q0 302 162 508.5t435 206.5q220 0 356 -167v139h866v-150h-685v-434h551v-139h-551v-492h685v-150h-866v143q-133 -170 -363 -170q-264 0 -427 201.5t-163 503.5zM264 682q0 -247 109.5 -408.5t304.5 -161.5q119 0 220.5 65.5t139.5 219.5v598 q-25 119 -125.5 188.5t-229.5 69.5q-197 0 -308 -159.5t-111 -411.5z" />
<glyph unicode="&#x153;" horiz-adv-x="1747" d="M78 503q0 244 135 389.5t330 145.5q205 0 349 -173q145 173 347 173q190 0 308 -139.5t122 -407.5h-710q0 -120 24.5 -198t99.5 -136t169 -58q180 0 260 205l141 -28q-50 -153 -165 -228t-244 -75q-216 0 -352 175q-147 -175 -358 -175q-198 0 -327 144.5t-129 385.5z M254 480q0 -193 80.5 -287.5t202.5 -94.5q126 0 206 99t80 310q0 200 -76.5 298.5t-206.5 98.5q-286 0 -286 -424zM964 608h537q-1 122 -71.5 209t-191.5 87q-104 0 -183 -74.5t-91 -221.5z" />
<glyph unicode="&#x178;" horiz-adv-x="1045" d="M-20 1365h201l363 -628l365 628h156l-457 -791v-574h-171v574zM271 1623q0 43 30.5 72.5t69.5 29.5q48 0 78 -30t30 -71q0 -42 -31.5 -72t-73.5 -30t-72.5 30t-30.5 71zM589 1624q0 43 31.5 72.5t73.5 29.5q44 0 75.5 -29.5t31.5 -71.5q0 -43 -31.5 -73t-74.5 -30 t-74.5 30t-31.5 72z" />
<glyph unicode="&#x2c6;" horiz-adv-x="1024" d="M180 1194l334 260l329 -260l-141 -20l-191 134l-184 -134z" />
<glyph unicode="&#x2da;" horiz-adv-x="1024" d="M339 1327q0 70 51.5 122t127.5 52q67 0 117.5 -51.5t50.5 -123.5q0 -71 -50.5 -121.5t-121.5 -50.5t-123 51t-52 122zM422 1328q0 -38 27 -65t65 -27q37 0 63 26.5t26 63.5q0 38 -26 65t-59 27q-43 0 -69.5 -27t-26.5 -63z" />
<glyph unicode="&#x2dc;" horiz-adv-x="1024" d="M170 1272q88 128 224 128q46 0 128 -34q89 -37 128 -37q65 0 127 51l77 -72q-106 -101 -202 -101q-49 0 -129 35q-87 38 -134 38q-81 0 -135 -66z" />
<glyph unicode="&#x2013;" d="M202 451v122h797v-122h-797z" />
<glyph unicode="&#x2014;" horiz-adv-x="1365" d="M3 451v122h1359v-122h-1359z" />
<glyph unicode="&#x2018;" horiz-adv-x="512" d="M154 923v203l134 239h71l-99 -239h99v-203h-205z" />
<glyph unicode="&#x2019;" horiz-adv-x="512" d="M154 923l99 239h-99v203h205v-203l-135 -239h-70z" />
<glyph unicode="&#x201a;" horiz-adv-x="512" d="M154 0v203h205v-203l-135 -239h-70l99 239h-99z" />
<glyph unicode="&#x201c;" horiz-adv-x="821" d="M154 928v171l156 266h71l-112 -240h82v-197h-197zM453 928v171l161 266h74l-117 -240h83v-197h-201z" />
<glyph unicode="&#x201d;" horiz-adv-x="821" d="M143 928l117 241h-82v196h200v-170l-161 -267h-74zM450 928l112 241h-81v196h196v-170l-156 -267h-71z" />
<glyph unicode="&#x201e;" horiz-adv-x="821" d="M143 -240l117 240h-82v197h200v-171l-161 -266h-74zM450 -240l112 240h-81v197h196v-171l-156 -266h-71z" />
<glyph unicode="&#x2022;" horiz-adv-x="1365" d="M401 696q0 118 82.5 202t199.5 84q116 0 198.5 -84t82.5 -202q0 -117 -82.5 -201.5t-198.5 -84.5q-119 0 -200.5 84.5t-81.5 201.5z" />
<glyph unicode="&#x2026;" horiz-adv-x="1526" d="M143 0v224h223v-224h-223zM652 0v224h221v-224h-221zM1160 0v224h223v-224h-223z" />
<glyph unicode="&#x2039;" horiz-adv-x="439" d="M82 533l172 282h90l-106 -282l106 -293h-90z" />
<glyph unicode="&#x203a;" horiz-adv-x="439" d="M96 240l106 283l-106 292h89l173 -292l-173 -283h-89z" />
<glyph unicode="&#x20ac;" horiz-adv-x="1200" d="M4 498v116h129q-2 25 -2 82q0 45 2 66h-129v117h141q47 261 198.5 387.5t336.5 126.5q360 0 457 -383l-166 -23q-73 270 -293 270q-122 0 -219 -87.5t-135 -290.5h401v-117h-416q-2 -25 -2 -80q0 -47 2 -68h416v-116h-403q38 -215 142 -302t206 -87q235 0 311 292 l158 -28q-60 -205 -173 -302.5t-300 -97.5q-194 0 -333 139t-186 386h-143z" />
<glyph unicode="&#x2122;" horiz-adv-x="1592" d="M1 1267v98h594v-98h-235v-680h-125v680h-234zM687 587v778h172l238 -590l234 590h169v-778h-121v619l-247 -619h-87l-249 619v-619h-109z" />
<glyph unicode="&#xe000;" horiz-adv-x="1010" d="M0 1010h1010v-1010h-1010v1010z" />
<glyph unicode="&#xfb01;" horiz-adv-x="988" d="M7 887v123h177q3 142 26.5 213.5t94.5 120.5t173 49q38 0 98 -11v-124q-47 11 -83 11q-60 0 -96.5 -31t-45.5 -76t-9 -152h234v-123h-234v-887h-158v887h-177zM668 1191v174h169v-174h-169zM673 0v1010h157v-1010h-157z" />
<glyph unicode="&#xfb02;" horiz-adv-x="987" d="M7 887v123h177q3 142 26.5 213.5t94.5 120.5t173 49q38 0 98 -11v-124q-47 11 -83 11q-60 0 -96.5 -31t-45.5 -76t-9 -152h234v-123h-234v-887h-158v887h-177zM673 0v1365h157v-1365h-157z" />
<glyph unicode="&#xfb03;" horiz-adv-x="1698" d="M1378 1191v174h169v-174h-169zM1385 0v1010h157v-1010h-157zM621 887v123h172q4 243 93.5 313t218.5 70q63 0 144 -14v-125q-51 13 -97 13q-103 0 -152.5 -45.5t-49.5 -170.5v-41h240v-123h-240v-887h-157v887h-172zM7 887v123h172q4 243 93.5 313t218.5 70q63 0 144 -14 v-125q-51 13 -97 13q-103 0 -152.5 -45.5t-49.5 -170.5v-41h240v-123h-240v-887h-157v887h-172z" />
<glyph unicode="&#xfb04;" horiz-adv-x="1699" d="M1385 0v1365h157v-1365h-157zM621 887v123h172q4 243 93.5 313t218.5 70q63 0 144 -14v-125q-51 13 -97 13q-103 0 -152.5 -45.5t-49.5 -170.5v-41h240v-123h-240v-887h-157v887h-172zM7 887v123h172q4 243 93.5 313t218.5 70q63 0 144 -14v-125q-51 13 -97 13 q-103 0 -152.5 -45.5t-49.5 -170.5v-41h240v-123h-240v-887h-157v887h-172z" />
</font>
</defs>
</svg>
